<?xml version="1.0" standalone="no"?>
<!DOCTYPE svg PUBLIC "-//W3C//DTD SVG 1.1//EN" "http://www.w3.org/Graphics/SVG/1.1/DTD/svg11.dtd" >
<svg xmlns="http://www.w3.org/2000/svg">
<metadata>
This is a custom SVG webfont generated by Font Squirrel.
</metadata>
<defs>
<font id="FranchiseRegular" horiz-adv-x="737" >
<font-face units-per-em="2048" ascent="1536" descent="-512" />
<missing-glyph horiz-adv-x="270" />
<glyph unicode=" "  horiz-adv-x="270" />
<glyph unicode="&#x09;" horiz-adv-x="270" />
<glyph unicode="&#xa0;" horiz-adv-x="270" />
<glyph unicode="!" horiz-adv-x="425" d="M82 117q0 53 39 92t92 39t92 -39t39 -92t-39 -92t-92 -39t-92 39t-39 92zM92 836v28v541q0 29 29 29h184q29 0 29 -29v-541v-28q0 -16 -2 -29l-45 -430q-4 -29 -31 -29h-86q-27 0 -31 29l-45 430q-2 13 -2 29z" />
<glyph unicode="&#x22;" horiz-adv-x="569" d="M41 1004v401q0 29 29 29h153q29 0 25 -29l-74 -401q-4 -29 -33 -29h-71q-29 0 -29 29zM319 1004v401q0 29 29 29h154q29 0 24 -29l-73 -401q-4 -29 -33 -29h-72q-29 0 -29 29z" />
<glyph unicode="#" horiz-adv-x="974" d="M41 541v65q0 29 29 29h213l26 168h-239q-29 0 -29 28v66q0 29 29 29h260l43 270q4 29 33 29h63q29 0 25 -29l-43 -270h139l43 270q4 29 33 29h63q29 0 25 -29l-43 -270h194q29 0 29 -29v-66q0 -29 -29 -28h-215l-26 -168h241q29 0 29 -29v-65q0 -29 -29 -29h-262 l-43 -274q-4 -29 -33 -29h-63q-29 0 -25 29l43 274h-139l-43 -274q-4 -29 -33 -29h-63q-29 0 -25 29l43 274h-192q-29 0 -29 29zM403 635h140l26 168h-139z" />
<glyph unicode="$" horiz-adv-x="675" d="M41 319v117q0 29 27 37l186 49q27 8 27 -20v-172q0 -20 14 -34.5t35 -14.5h16q20 0 34.5 14t14.5 35v194q-2 27 -8 47.5t-25 36.5l-264 203q-31 29 -44 57.5t-13 75.5v172q0 96 60.5 167t152.5 87v76q0 29 29 29h110q29 0 29 -29v-76q92 -16 152.5 -87t60.5 -167v-78 q0 -29 -27 -37l-186 -49q-27 -8 -27 21v133q0 20 -14 34.5t-35 14.5h-16q-20 0 -34.5 -14.5t-14.5 -34.5v-113q2 -23 8 -39t22 -32l269 -201q33 -29 42 -58.5t13 -66.5v-277q0 -96 -60.5 -166.5t-152.5 -86.5v-78q0 -29 -29 -29h-110q-29 0 -29 29v78q-92 16 -152.5 86.5 t-60.5 166.5z" />
<glyph unicode="%" horiz-adv-x="1107" d="M72 883v401q0 68 48 116t116 48h61q68 0 116 -48t48 -116v-401q0 -68 -48 -116t-116 -48h-61q-68 0 -116 48t-48 116zM137 27l666 1380q8 27 37 27h110q12 0 18.5 -9.5t2.5 -19.5l-666 -1378q-8 -27 -37 -27h-110q-29 0 -21 27zM229 891q0 -29 29 -29h16q29 0 29 29v385 q0 29 -29 29h-16q-29 0 -29 -29v-385zM647 150v401q0 68 48 116t116 48h61q68 0 116 -48.5t48 -115.5v-401q0 -68 -48 -116t-116 -48h-61q-68 0 -116 48t-48 116zM805 158q0 -29 29 -29h16q29 0 29 29v385q0 29 -29 28h-16q-29 0 -29 -28v-385z" />
<glyph unicode="&#x26;" horiz-adv-x="843" d="M82 244v362q0 43 10 88q6 16 13.5 29.5t19.5 24.5q27 23 59 34q-35 14 -59 41q-29 33 -39 82q-2 12 -3 25.5t-1 27.5v232q0 53 20.5 100t55.5 82t82 55.5t100 20.5h78q53 0 100 -20.5t82 -55.5t55.5 -82t20.5 -100v-211q0 -29 -27 -21l-186 50q-27 8 -27 36v136 q0 20 -14 34.5t-35 14.5h-16q-20 0 -34.5 -14.5t-14.5 -34.5v-238q0 -33 10 -43q4 -4 13 -11t24 -7h96q10 0 17 -7.5t7 -17.5v-151q0 -10 -7 -17.5t-17 -7.5h-96q-18 0 -25.5 -6t-11.5 -10q-6 -8 -8 -24.5t-2 -33.5v-352q0 -20 14 -34.5t35 -14.5h16q20 0 34.5 14t14.5 35 v297q0 16 17 12l292 -69q16 -4 17 -21v-67q0 -16 -17 -13l-69 15v-164q0 -53 -20.5 -100.5t-55.5 -82t-82 -55t-100 -20.5h-78q-53 0 -100 20.5t-82 55t-55.5 82t-20.5 100.5z" />
<glyph unicode="'" horiz-adv-x="290" d="M41 1004v401q0 29 29 29h153q29 0 25 -29l-74 -401q-4 -29 -33 -29h-71q-29 0 -29 29z" />
<glyph unicode="(" horiz-adv-x="481" d="M20 717q0 307 89 532q43 113 107.5 206t148.5 169q18 18 36 0l52 -51q18 -18 2 -37q-51 -66 -90 -142.5t-66 -174.5q-29 -98 -44 -221.5t-15 -280.5q0 -158 15 -281t44 -221q27 -98 65.5 -175t90.5 -142q16 -18 -2 -37l-52 -51q-18 -18 -36 0q-84 76 -148.5 168 t-107.5 206q-89 222 -89 533z" />
<glyph unicode=")" horiz-adv-x="481" d="M27 -102q51 66 89 142.5t66 174.5q27 98 43.5 221t16.5 281t-16.5 280.5t-43.5 221.5q-29 98 -66.5 174.5t-88.5 142.5q-16 18 2 37l51 51q18 18 37 0q168 -152 256 -375q43 -115 65.5 -246t22.5 -286q0 -156 -22.5 -288t-65.5 -245q-45 -115 -108.5 -207t-147.5 -167 q-18 -18 -37 0l-51 51q-18 19 -2 37z" />
<glyph unicode="*" horiz-adv-x="536" d="M41 1087q0 6 4 14.5t16 14.5q18 10 47 25.5t64 27.5q-35 12 -63.5 27.5t-47.5 26.5q-20 10 -20 26q0 8 4 17l29 51q4 4 12 8q14 8 35 -2q23 -12 47.5 -29.5t52.5 -40.5q-6 35 -10 68t-4 55q-2 14 4 20.5t12 10.5q8 4 17 4h57q8 0 16 -4q16 -8 17 -31q0 -23 -4 -55.5 t-11 -67.5q29 23 53.5 40.5t47.5 29.5q18 10 35 2q8 -4 12 -8l29 -51q4 -8 4 -17q0 -14 -21 -26q-18 -10 -47 -25.5t-63 -28.5q35 -12 63.5 -27.5t46.5 -25.5q20 -12 21 -29q0 -8 -4 -14l-29 -51q-4 -6 -12 -10q-14 -8 -35 4q-43 20 -101 69q6 -35 10.5 -67.5t4.5 -54.5 q0 -23 -17 -31q-8 -4 -16 -4h-57q-8 0 -17 4q-6 4 -12 10t-4 21q0 23 4 55.5t10 66.5q-59 -49 -100 -69q-23 -10 -35 -4q-8 4 -12 10l-29 51q-4 6 -4 14z" />
<glyph unicode="+" horiz-adv-x="897" d="M61 672v155q0 29 29 29h252v252q0 29 29 29h155q29 0 29 -29v-252h252q29 0 29 -29v-155q0 -29 -29 -29h-252v-252q0 -29 -29 -29h-155q-29 0 -29 29v252h-252q-29 0 -29 29z" />
<glyph unicode="," horiz-adv-x="362" d="M41 129q0 45 33 80q37 39 92 39q61 0 101 -41t48 -101q4 -20 5.5 -40.5t-3.5 -40.5q-8 -55 -33.5 -100.5t-72.5 -76.5q-12 -8 -25.5 -15t-27.5 -11q-2 0 -13 -2l-20 -4q-4 0 -8 2q-8 4 -8 14v31q0 2 2 6q6 6 10 6q18 0 50 17.5t42 74.5q2 8 1 19.5t-7 15.5q-4 4 -15.5 1 t-17.5 -3q-35 0 -56.5 9t-39.5 26q-37 33 -37 94z" />
<glyph unicode="-" horiz-adv-x="610" d="M61 672v155q0 29 29 29h430q29 0 29 -29v-155q0 -29 -29 -29h-430q-29 0 -29 29z" />
<glyph unicode="." horiz-adv-x="344" d="M41 117q0 53 39 92t92 39t92 -39t39 -92t-39 -92t-92 -39t-92 39t-39 92z" />
<glyph unicode="/" horiz-adv-x="598" d="M2 27l426 1380q8 27 37 27h110q12 0 18.5 -9.5t2.5 -19.5l-426 -1378q-8 -27 -37 -27h-110q-29 0 -21 27z" />
<glyph unicode="0" horiz-adv-x="757" d="M82 244v946q0 53 20.5 100t55.5 82t82 55.5t100 20.5h78q53 0 100 -20.5t82 -55.5t55.5 -82t20.5 -100v-946q0 -53 -20.5 -100.5t-55.5 -82t-82 -55t-100 -20.5h-78q-53 0 -100 20.5t-82 55t-55.5 82t-20.5 100.5zM322 254q0 -20 14 -34.5t35 -14.5h16q20 0 34.5 14 t14.5 35v926q0 20 -14 34.5t-35 14.5h-16q-20 0 -34.5 -14.5t-14.5 -34.5v-926z" />
<glyph unicode="1" horiz-adv-x="577" d="M82 1014v153q0 10 7 18.5t17 10.5q47 18 87 51q35 27 64.5 69t37.5 101q6 16 22 17h152q27 -4 27 -29v-1376q0 -29 -29 -29h-182q-29 0 -29 29v1028q-27 -20 -66.5 -41t-74.5 -27q-14 -4 -23 4q-10 7 -10 21z" />
<glyph unicode="2" horiz-adv-x="759" d="M82 979v211q0 53 20.5 100t55.5 82t82 55.5t100 20.5h78q53 0 100 -20.5t82 -55.5t55.5 -82t20.5 -100v-123v-121q0 -63 -15.5 -122.5t-50.5 -112.5q-31 -49 -66.5 -100.5t-68.5 -100.5q-6 -10 -12 -19.5t-12 -19.5q-31 -49 -51.5 -92t-32.5 -76q-14 -37 -25 -72h317 q18 0 19 -18v-195q0 -18 -19 -18h-540q-14 0 -19 18q-6 39 -7 77t1 69q2 37 8 69q4 39 14.5 74t20.5 64q12 33 27 59q53 96 100 170t84 127q43 61 80 107q10 23 8 43t0 61v242q0 20 -14 34.5t-35 14.5h-16q-20 0 -34.5 -14.5t-14.5 -34.5v-136q0 -29 -27 -36l-186 -50 q-27 -8 -27 21z" />
<glyph unicode="3" horiz-adv-x="757" d="M82 244v223q0 29 27 37l186 49q27 8 27 -21v-278q0 -20 14 -34.5t35 -14.5h16q20 0 34.5 14t14.5 35v352q0 16 -2 32.5t-8 25.5q-4 4 -11 10t-26 6h-96q-10 0 -17.5 7t-7.5 18v151q0 10 7.5 17.5t17.5 7.5h96q14 0 23.5 7t13.5 11q10 10 10 43v238q0 20 -14 34.5 t-35 14.5h-16q-20 0 -34.5 -14.5t-14.5 -34.5v-136q0 -29 -27 -36l-186 -50q-27 -8 -27 21v211q0 53 20.5 100t55.5 82t82 55.5t100 20.5h78q53 0 100 -20.5t82 -55.5t55.5 -82t20.5 -100v-232q0 -14 -1 -27t-3 -26q-10 -49 -39 -82q-27 -27 -60 -41q33 -12 60 -34 q18 -18 33 -54q10 -45 10 -88v-362q0 -53 -20.5 -100.5t-55.5 -82t-82 -55t-100 -20.5h-78q-53 0 -100 20.5t-82 55t-55.5 82t-20.5 100.5z" />
<glyph unicode="4" horiz-adv-x="798" d="M41 315v174q0 10 2 15q0 4 2 6q80 156 132 302t83 266t44 206t18 123q0 6 4 12l9 9q5 5 15 6h246q29 0 29 -29v-893h65q6 0 19 -8q8 -8 8 -19v-170q0 -12 -8 -20q-12 -8 -19 -8h-65v-258q0 -29 -29 -29h-182q-29 0 -29 29v258h-317q-10 0 -19 8q-8 6 -8 20zM233 512h150 v471q-12 -63 -33 -139q-16 -66 -46 -150t-71 -182z" />
<glyph unicode="5" horiz-adv-x="759" d="M82 244v84q0 29 27 37l186 49q27 8 27 -21v-139q0 -20 14 -34.5t35 -14.5h16q20 0 34.5 14t14.5 35v403q0 33 -12 45q-4 4 -13.5 10.5t-23.5 6.5h-16q-14 0 -23.5 -7t-13.5 -12q-12 -12 -12 -43v-57q0 -10 -6.5 -16t-16.5 -2l-195 51q-23 8 -22 29v743q0 29 29 29h120 h371q29 0 29 -29v-174q0 -29 -29 -29h-280v-309q61 29 133 29q41 0 77 -11q72 -20 109 -73.5t35 -126.5v-467q0 -53 -20.5 -100.5t-55.5 -82t-82 -55t-100 -20.5h-78q-53 0 -100 20.5t-82 55t-55.5 82t-20.5 100.5z" />
<glyph unicode="6" horiz-adv-x="757" d="M82 244v946q0 53 20.5 100t55.5 82t82 55.5t100 20.5h78q53 0 100 -20.5t82 -55.5t55.5 -82t20.5 -100v-84q0 -29 -27 -37l-186 -49q-27 -8 -27 20v140q0 20 -14 34.5t-35 14.5h-16q-20 0 -34.5 -14.5t-14.5 -34.5v-301q61 29 133 28q41 0 77 -10q143 -41 144 -201v-452 q0 -53 -20.5 -100.5t-55.5 -82t-82 -55t-100 -20.5h-78q-53 0 -100 20.5t-82 55t-55.5 82t-20.5 100.5zM322 254q0 -20 14 -34.5t35 -14.5h16q20 0 34.5 14t14.5 35v389q0 33 -12 45q-4 4 -13.5 10.5t-23.5 6.5h-16q-14 0 -23.5 -7.5t-13.5 -11.5q-12 -12 -12 -43v-389z" />
<glyph unicode="7" horiz-adv-x="649" d="M41 1235v172q0 6 8 18q8 8 19 9h501q12 0 21 -9q8 -12 8 -18v-190q-43 -115 -70.5 -226.5t-45 -206t-24.5 -162t-9 -94.5q-10 -123 -13.5 -244.5t-3.5 -256.5q0 -27 -26 -27h-189q-14 0 -22 12q-4 6 -5 15q0 190 10.5 378.5t39.5 374.5q25 154 55.5 262.5t48.5 165.5 h-276q-12 0 -19 9q-8 8 -8 18z" />
<glyph unicode="8" horiz-adv-x="757" d="M82 244v362q0 43 10 88q6 16 13.5 29.5t19.5 24.5q27 23 59 34q-35 14 -59 41q-29 33 -39 82q-2 12 -3 25.5t-1 27.5v232q0 53 20.5 100t55.5 82t82 55.5t100 20.5h78q53 0 100 -20.5t82 -55.5t55.5 -82t20.5 -100v-232q0 -14 -1 -27t-3 -26q-10 -49 -39 -82 q-27 -27 -60 -41q33 -12 60 -34q18 -18 33 -54q10 -45 10 -88v-362q0 -53 -20.5 -100.5t-55.5 -82t-82 -55t-100 -20.5h-78q-53 0 -100 20.5t-82 55t-55.5 82t-20.5 100.5zM322 254q0 -20 14 -34.5t35 -14.5h16q20 0 34.5 14t14.5 35v342q0 16 -2 32.5t-8 24.5 q-4 4 -11 10.5t-26 6.5h-20q-18 0 -25.5 -6.5t-11.5 -10.5q-6 -8 -8 -24.5t-2 -32.5v-342zM322 956q0 -33 10 -43q4 -4 13 -11t24 -7h20q14 0 23.5 7t13.5 11q10 10 10 43v224q0 20 -14 34.5t-35 14.5h-16q-20 0 -34.5 -14.5t-14.5 -34.5v-224z" />
<glyph unicode="9" horiz-adv-x="757" d="M82 244v84q0 29 27 37l186 49q27 8 27 -21v-139q0 -20 14 -34.5t35 -14.5h16q20 0 34.5 14t14.5 35v301q-63 -29 -133 -29q-41 0 -78 11q-143 39 -143 200v453q0 53 20.5 100t55.5 82t82 55.5t100 20.5h78q53 0 100 -20.5t82 -55.5t55.5 -82t20.5 -100v-946 q0 -53 -20.5 -100.5t-55.5 -82t-82 -55t-100 -20.5h-78q-53 0 -100 20.5t-82 55t-55.5 82t-20.5 100.5zM322 791q0 -33 12 -46q4 -4 13 -10t24 -6h16q14 0 23.5 7t13.5 12q12 12 12 43v389q0 20 -14 34.5t-35 14.5h-16q-20 0 -34.5 -14.5t-14.5 -34.5v-389z" />
<glyph unicode=":" horiz-adv-x="344" d="M41 444q0 53 39 92t92 39t92 -38.5t39 -92.5q0 -53 -39 -92t-92 -39t-92 39t-39 92zM41 905q0 53 39 92t92 39t92 -39t39 -92t-39 -92t-92 -39t-92 39t-39 92z" />
<glyph unicode=";" horiz-adv-x="362" d="M41 461q0 45 33 80q37 39 92 39q61 0 101 -41t48 -101q4 -20 5.5 -40.5t-3.5 -41.5q-8 -55 -33.5 -100t-72.5 -76q-12 -8 -25.5 -15t-27.5 -11q-2 0 -13 -2l-20 -5q-4 0 -8 3q-8 4 -8 14v31q0 2 2 6q6 6 10 6q18 0 50 17.5t42 74.5q2 8 1 19.5t-7 15.5q-4 4 -15.5 1 t-17.5 -3q-35 0 -56.5 9t-39.5 26q-37 33 -37 94zM41 905q0 53 39 92t92 39t92 -39t39 -92t-39 -92t-92 -39t-92 39t-39 92z" />
<glyph unicode="&#x3c;" horiz-adv-x="655" d="M41 690v53q0 10 6 15l524 440q10 8 16.5 4t6.5 -16v-201q0 -29 -23 -47l-92 -78l-166 -137q-2 -2 -2 -6t2 -6l166 -138l92 -77q23 -18 23 -47v-201q0 -12 -6 -16.5t-17 4.5l-524 440q-4 2 -5 6t-1 8z" />
<glyph unicode="=" horiz-adv-x="720" d="M61 512v156q0 29 29 28h541q29 0 28 -28v-156q0 -29 -28 -29h-541q-29 0 -29 29zM61 819v156q0 29 29 29h541q29 0 28 -29v-156q0 -29 -28 -28h-541q-29 -1 -29 28z" />
<glyph unicode="&#x3e;" horiz-adv-x="655" d="M61 248v201q0 29 23 47l258 215q2 2 2 6t-2 6l-258 215q-23 18 -23 47v201q0 12 6.5 16t16.5 -4l524 -440q6 -4 6 -15v-53q0 -4 -1 -8t-5 -6l-524 -440q-10 -8 -16.5 -4t-6.5 16z" />
<glyph unicode="?" horiz-adv-x="782" d="M72 946v156q0 168 82 257t231 89q104 0 167.5 -36t99.5 -92t47.5 -125t9.5 -132q-2 -59 -6.5 -94t-18.5 -66t-45 -68.5t-86 -101.5q-37 -43 -74 -82t-55 -84q-12 -29 -18.5 -77t-10.5 -87l-2 -30q0 -10 -7 -16.5t-17 -6.5h-86q-23 0 -27 23q-4 49 -8 90q-4 35 -6 65.5 t-2 38.5q-2 47 14 88t42 81t59.5 81t64.5 88q18 29 27.5 48.5t14.5 37t5 34.5v42q0 70 -14.5 110t-67.5 40q-39 0 -56.5 -29t-17.5 -76v-108q0 -10 -6 -18.5t-16 -10.5l-195 -47q-10 -4 -16 2t-6 16zM201 117q0 53 39 92t92 39t92 -39t39 -92t-39 -92t-92 -39t-92 39t-39 92 z" />
<glyph unicode="@" horiz-adv-x="1097" d="M41 717q0 133 40 243.5t112 194.5t167 131t205 47q63 0 118.5 -13t102.5 -36t83 -55.5t67 -71.5q59 -78 90 -170t31 -180q0 -117 -45 -219q-23 -47 -55.5 -87t-75.5 -67q-59 -35 -133 -35q-57 0 -95 23q-41 25 -59 70q-10 -10 -19.5 -20.5t-19.5 -18.5q-51 -39 -111 -39 q-63 0 -96 32.5t-49 73.5q-18 47 -20 107q0 49 9 100t31 98q45 98 125 154q55 39 119 39q53 0 90 -31l11 -10l4 10q8 20 24 21h127q10 0 21 -11q8 -10 4 -24l-99 -340q-2 -8 -7 -24.5t-6 -35t2 -33t20 -16.5q10 -2 26.5 1t44.5 26q25 14 45 51q20 35 32.5 88t12.5 119 q0 92 -26.5 162.5t-73.5 122.5q-47 51 -109.5 75.5t-140.5 28.5q-61 2 -139 -28.5t-133 -108.5q-47 -68 -78 -156t-31 -192q0 -109 24.5 -196t76.5 -148q51 -61 123.5 -95t156.5 -34q82 0 146.5 27.5t109.5 72.5q8 8 21 8q12 0 18 -8l49 -59q6 -8 4 -21.5t-10 -21.5 q-63 -63 -145 -94t-187 -35q-92 -4 -163.5 21.5t-122.5 59.5q-59 39 -105 91q-139 157 -139 436zM453 635q0 -29 8 -49q2 -12 10 -19q14 -14 43 2q10 4 23 21q25 31 38 84l41 153q0 18 -4 35q-6 10 -12 15q-2 2 -14 2q-23 0 -45 -21q-25 -23 -45 -61q-20 -39 -31.5 -83 t-11.5 -79z" />
<glyph unicode="A" horiz-adv-x="729" d="M43 29l154 1376q4 29 32 29h271q29 0 32 -29l154 -1376q4 -29 -24 -29h-187q-27 0 -31 29l-16 221h-127l-16 -221q-4 -29 -31 -29h-186q-29 0 -25 29zM317 479h95l-39 555h-17z" />
<glyph unicode="B" horiz-adv-x="747" d="M92 29v1376q0 29 29 29h307q53 0 100 -20.5t82 -55.5t55.5 -82t20.5 -100v-205q0 -94 -57 -158q-31 -33 -74 -53q45 -16 74 -45t43 -68t14 -86v-303q0 -53 -20.5 -100t-55.5 -82t-82 -55.5t-100 -20.5h-307q-29 0 -29 29zM332 219h65q20 0 34.5 14.5t14.5 34.5v326 q0 20 -14 34.5t-35 14.5h-65v-424zM332 866h65q20 0 34.5 14.5t14.5 34.5v250q0 20 -14 34.5t-35 14.5h-65v-348z" />
<glyph unicode="C" horiz-adv-x="727" d="M72 244v946q0 53 20.5 100t55 82t81.5 55.5t101 20.5h78q53 0 100 -20.5t82 -55.5t55.5 -82t20.5 -100v-164q0 -29 -27 -37l-186 -28q-27 -8 -27 20v199q0 20 -14.5 34.5t-34.5 14.5h-17q-20 0 -34.5 -14.5t-14.5 -34.5v-926q0 -20 14.5 -34.5t34.5 -14.5h17 q20 0 34.5 14t14.5 35v287q0 29 27 20l186 -24q27 -8 27 -37v-256q0 -53 -20.5 -100.5t-55.5 -82t-82 -55t-100 -20.5h-78q-53 0 -100.5 20.5t-82 55t-55 82t-20.5 100.5z" />
<glyph unicode="D" horiz-adv-x="757" d="M92 29v1376q0 29 29 29h307q53 0 100 -20.5t82 -55.5t55.5 -82t20.5 -100v-918q0 -53 -20.5 -100t-55.5 -82t-82 -55.5t-100 -20.5h-307q-29 0 -29 29zM332 219h65q20 0 34.5 14.5t14.5 34.5v897q0 20 -14 34.5t-35 14.5h-65v-995z" />
<glyph unicode="E" horiz-adv-x="675" d="M92 29v1376q0 29 29 29h444q29 0 29 -29v-182q0 -29 -29 -29h-233v-295h203q29 0 28 -29v-182q0 -29 -28 -29h-203v-419h233q29 0 29 -29v-182q0 -29 -29 -29h-444q-29 0 -29 29z" />
<glyph unicode="F" horiz-adv-x="655" d="M92 29v1376q0 29 29 29h444q29 0 29 -29v-182q0 -29 -29 -29h-233v-295h203q29 0 28 -29v-182q0 -29 -28 -29h-203v-630q0 -29 -29 -29h-182q-29 0 -29 29z" />
<glyph unicode="G" d="M72 244v946q0 53 20.5 100t55 82t81.5 55.5t101 20.5h78q53 0 100 -20.5t82 -55.5t55.5 -82t20.5 -100v-66q0 -29 -27 -37l-186 -67q-27 -8 -27 20v140q0 20 -14.5 34.5t-34.5 14.5h-17q-20 0 -34.5 -14.5t-14.5 -34.5v-926q0 -20 14.5 -34.5t34.5 -14.5h17q20 0 34.5 14 t14.5 35v364h-57v234h268q29 0 29 -29v-579q0 -53 -20.5 -100.5t-55.5 -82t-82 -55t-100 -20.5h-78q-53 0 -100.5 20.5t-82 55t-55 82t-20.5 100.5z" />
<glyph unicode="H" horiz-adv-x="798" d="M92 29v1376q0 29 29 29h182q29 0 29 -29v-551h135v551q0 29 29 29h182q29 0 29 -29v-1376q0 -29 -29 -29h-182q-29 0 -29 29v585h-135v-585q0 -29 -29 -29h-182q-29 0 -29 29z" />
<glyph unicode="I" horiz-adv-x="423" d="M92 29v1376q0 29 29 29h182q29 0 29 -29v-1376q0 -29 -29 -29h-182q-29 0 -29 29z" />
<glyph unicode="J" horiz-adv-x="727" d="M51 244v260q0 29 27 37l186 49q27 8 27 -21v-315q0 -20 14 -34.5t35 -14.5h16q20 0 35 14t15 35v1151q0 29 28 29h182q29 0 29 -29v-1161q0 -53 -20.5 -100.5t-55 -82t-82 -55t-100.5 -20.5h-78q-53 0 -100 20.5t-82 55t-55.5 82t-20.5 100.5z" />
<glyph unicode="K" horiz-adv-x="825" d="M92 29v1376q0 29 29 29h182q29 0 29 -29v-440l188 444q10 25 39 25h205q12 0 16 -10q2 -5 2 -9.5t-2 -9.5l-274 -604l270 -772q4 -10 -2 -19.5t-18 -9.5h-203q-12 0 -22.5 7t-14.5 18l-149 462l-35 -86v-372q0 -29 -29 -29h-182q-29 0 -29 29z" />
<glyph unicode="L" horiz-adv-x="675" d="M102 29v1376q0 29 29 29h182q29 0 29 -29v-1165h254q29 0 29 -29v-182q0 -29 -29 -29h-277h-4h-2h-182q-29 0 -29 29z" />
<glyph unicode="M" horiz-adv-x="983" d="M92 29v1376q0 29 29 29h174q12 0 21.5 -9.5t13.5 -19.5l162 -733l161 733q4 10 13.5 19.5t21.5 9.5h174q29 0 29 -29v-1376q0 -29 -29 -29h-196q-29 0 -29 29v647l-135 -529q-4 -10 -10.5 -10t-10.5 10l-135 529v-647q0 -29 -29 -29h-196q-29 0 -29 29z" />
<glyph unicode="N" horiz-adv-x="839" d="M92 29v1376q0 29 29 29h135q12 0 23.5 -8.5t15.5 -18.5l213 -657v655q0 29 29 29h182q29 0 29 -29v-1376q0 -29 -29 -29h-131q-12 0 -23.5 8t-15.5 19l-217 678v-676q0 -29 -29 -29h-182q-29 0 -29 29z" />
<glyph unicode="O" d="M72 244v946q0 53 20.5 100t55 82t81.5 55.5t101 20.5h78q53 0 100 -20.5t82 -55.5t55.5 -82t20.5 -100v-946q0 -53 -20.5 -100.5t-55.5 -82t-82 -55t-100 -20.5h-78q-53 0 -100.5 20.5t-82 55t-55 82t-20.5 100.5zM311 254q0 -20 14.5 -34.5t34.5 -14.5h17q20 0 34.5 14 t14.5 35v926q0 20 -14.5 34.5t-34.5 14.5h-17q-20 0 -34.5 -14.5t-14.5 -34.5v-926z" />
<glyph unicode="P" horiz-adv-x="727" d="M92 29v1376q0 29 29 29h307q53 0 100 -20.5t82 -55.5t55.5 -82t20.5 -100v-334q0 -53 -20.5 -100.5t-55.5 -82t-82 -55t-100 -20.5h-96v-555q0 -29 -29 -29h-182q-29 0 -29 29zM332 803h65q20 0 34.5 14t14.5 35v313q0 20 -14 34.5t-35 14.5h-65v-411z" />
<glyph unicode="Q" horiz-adv-x="745" d="M72 244v946q0 53 20.5 100t55 82t81.5 55.5t101 20.5h78q53 0 100 -20.5t82 -55.5t55.5 -82t20.5 -100v-946q0 -57 -22.5 -107.5t-63.5 -85.5l88 -133q4 -7 4 -14q0 -4 -1 -7q-3 -11 -14 -16l-141 -63q-10 -4 -18 -4q-16 0 -27 16l-104 156h-37q-53 0 -100.5 20.5t-82 55 t-55 82t-20.5 100.5zM311 254q0 -20 14.5 -34.5t34.5 -14.5h17q20 0 34.5 14t14.5 35v926q0 20 -14.5 34.5t-34.5 14.5h-17q-20 0 -34.5 -14.5t-14.5 -34.5v-926z" />
<glyph unicode="R" horiz-adv-x="770" d="M92 29v1376q0 29 29 29h307q53 0 100 -20.5t82 -55.5t55.5 -82t20.5 -100v-334q0 -76 -39 -136.5t-102 -93.5l182 -583q1 -5 1 -10q0 -19 -21 -19h-187q-12 0 -23.5 8t-15.5 21l-149 501v-530l-2 20q-4 -20 -27 -20h-182q-29 0 -29 29zM332 803h65q20 0 34.5 14t14.5 35 v313q0 20 -14 34.5t-35 14.5h-65v-411z" />
<glyph unicode="S" horiz-adv-x="716" d="M61 244v196q0 29 27 37l186 49q27 8 27 -20v-252q0 -20 14.5 -34.5t34.5 -14.5h17q20 0 34.5 14t14.5 35v270q-2 27 -8.5 47.5t-24.5 36.5l-264 203q-31 29 -44.5 57.5t-13.5 75.5v246q0 53 20.5 100t55.5 82t82 55.5t100 20.5h78q53 0 100.5 -20.5t82 -55.5t55 -82 t20.5 -100v-78q0 -29 -26 -37l-187 -49q-27 -8 -26 21v133q0 20 -14.5 34.5t-34.5 14.5h-17q-20 0 -34.5 -14.5t-14.5 -34.5v-187q2 -23 8 -39t23 -32l268 -201q33 -29 42 -58.5t13 -66.5v-352q0 -53 -20.5 -100.5t-55 -82t-81.5 -55t-101 -20.5h-78q-53 0 -100 20.5t-82 55 t-55.5 82t-20.5 100.5z" />
<glyph unicode="T" horiz-adv-x="688" d="M51 1223v182q0 29 29 29h528q29 0 29 -29v-182q0 -29 -29 -29h-145v-1165q0 -29 -29 -29h-182q-10 0 -19.5 8t-9.5 21v1165h-143q-29 0 -29 29z" />
<glyph unicode="U" d="M72 244v1161q0 29 28 29h183q29 0 28 -29v-1151q0 -20 14.5 -34.5t34.5 -14.5h17q20 0 34.5 14t14.5 35v1151q0 29 29 29h182q29 0 29 -29v-1161q0 -53 -20.5 -100.5t-55.5 -82t-82 -55t-100 -20.5h-78q-53 0 -100.5 20.5t-82 55t-55 82t-20.5 100.5z" />
<glyph unicode="V" horiz-adv-x="774" d="M23 1405q-4 29 24 29h221q27 0 31 -29l84 -868h8l84 868q4 29 31 29h221q29 0 25 -29l-242 -1376q-4 -29 -33 -29h-180q-29 0 -33 29z" />
<glyph unicode="W" horiz-adv-x="1165" d="M23 1405q-4 29 24 29h221q27 0 31 -29l92 -836h8l70 836q4 29 31 29h166q27 0 30 -29l70 -836h8l92 836q4 29 31 29h221q29 0 25 -29l-242 -1376q-4 -29 -33 -29h-180q-29 0 -33 29l-71 510h-2l-72 -510q-4 -29 -33 -29h-180q-29 0 -33 29z" />
<glyph unicode="X" horiz-adv-x="774" d="M63 29l168 690l-168 686q-1 4 -1 7q0 6 5 12q7 9 19 10h190q29 0 33 -29l78 -406l78 406q4 29 33 29h190q12 0 20 -10q5 -6 4 -12q0 -4 -1 -7l-168 -686l168 -690q1 -5 1 -10q0 -19 -24 -19h-190q-29 0 -33 29l-78 405l-78 -405q-4 -29 -33 -29h-190q-12 0 -19 8 q-5 5 -5 12q0 5 1 9z" />
<glyph unicode="Y" horiz-adv-x="757" d="M23 1405q-2 4 -2 8q0 6 4 11q6 9 18 10h217q29 0 33 -29l82 -516h8l82 516q4 29 33 29h217q12 0 18 -10q4 -6 4 -11q0 -4 -2 -8l-235 -848v-528q0 -29 -29 -29h-184q-29 0 -29 29v528z" />
<glyph unicode="Z" horiz-adv-x="722" d="M61 1233v172q0 29 29 29h539q12 0 19 -9.5t3 -19.5l-284 -1176h266q29 0 29 -28v-172q0 -29 -29 -29h-543q-12 0 -19.5 8t-2.5 21l284 1175h-262q-29 0 -29 29z" />
<glyph unicode="[" horiz-adv-x="471" d="M20 -209v1851q0 29 29 29h373q29 0 29 -29v-139q0 -29 -29 -28h-197v-1516h197q29 0 29 -29v-139q0 -29 -29 -29h-373q-29 0 -29 29z" />
<glyph unicode="\" horiz-adv-x="598" d="M2 1405q-4 10 2 19.5t19 9.5h110q29 0 37 -27l426 -1380q8 -27 -21 -27h-110q-29 0 -37 27z" />
<glyph unicode="]" horiz-adv-x="471" d="M20 -70q0 29 29 29h197v1516h-197q-29 0 -29 28v139q0 29 29 29h373q29 0 29 -29v-1851q0 -29 -29 -29h-373q-29 0 -29 29v139z" />
<glyph unicode="^" horiz-adv-x="569" d="M4 1104q-6 18 4 33l254 286q6 10 21 11h4q10 0 20 -11l254 -286q10 -14 4 -33q-4 -12 -24 -12h-129q-16 0 -23 10l-104 143l-105 -143q-10 -10 -22 -10h-129q-21 0 -25 12z" />
<glyph unicode="_" horiz-adv-x="856" d="M41 -29q0 29 29 29h716q29 0 29 -29v-127q0 -29 -29 -28h-716q-29 0 -29 28v127z" />
<glyph unicode="a" horiz-adv-x="729" d="M43 29l154 1171q4 29 32 29h271q29 0 32 -29l154 -1171q4 -29 -24 -29h-187q-27 0 -31 29l-16 200h-127l-16 -200q-4 -29 -31 -29h-186q-29 0 -25 29zM317 459h95l-39 452h-17z" />
<glyph unicode="b" horiz-adv-x="747" d="M92 29v1171q0 29 29 29h307q53 0 100 -20.5t82 -55.5t55.5 -82t20.5 -100v-135q0 -94 -57 -158q-31 -33 -74 -53q45 -16 74 -45t43 -68t14 -86v-168q0 -53 -20.5 -100t-55.5 -82t-82 -55.5t-100 -20.5h-301q-12 0 -23.5 3t-11.5 26zM332 219h65q20 0 34.5 14.5t14.5 34.5 v191q0 20 -14 34.5t-35 14.5h-65v-289zM332 731h65q20 0 34.5 14.5t14.5 34.5v181q0 20 -14 34.5t-35 14.5h-65v-279z" />
<glyph unicode="c" horiz-adv-x="727" d="M72 244v741q0 53 20.5 100.5t55 82t81.5 55t101 20.5h78q53 0 100 -20.5t82 -55t55.5 -82t20.5 -100.5v-123q0 -29 -27 -37l-186 -28q-27 -8 -27 20v158q0 20 -14.5 34.5t-34.5 14.5h-17q-20 0 -34.5 -14.5t-14.5 -34.5v-721q0 -20 14.5 -34.5t34.5 -14.5h17 q20 0 34.5 14t14.5 35v246q0 29 27 20l186 -24q27 -8 27 -37v-215q0 -53 -20.5 -100.5t-55.5 -82t-82 -55t-100 -20.5h-78q-53 0 -100.5 20.5t-82 55t-55 82t-20.5 100.5z" />
<glyph unicode="d" horiz-adv-x="757" d="M92 29v1171q0 29 29 29h307q53 0 100 -20.5t82 -55.5t55.5 -82t20.5 -100v-713q0 -53 -20.5 -100t-55.5 -82t-82 -55.5t-100 -20.5h-307q-29 0 -29 29zM332 219h65q20 0 34.5 14.5t14.5 34.5v693q0 20 -14 34.5t-35 14.5h-65v-791z" />
<glyph unicode="e" horiz-adv-x="675" d="M92 29v1171q0 29 29 29h444q29 0 29 -29v-182q0 -29 -29 -29h-233v-233h203q29 0 28 -29v-182q0 -29 -28 -29h-203v-276h233q29 0 29 -29v-182q0 -29 -29 -29h-444q-29 0 -29 29z" />
<glyph unicode="f" horiz-adv-x="655" d="M92 29v1171q0 29 29 29h444q29 0 29 -29v-182q0 -29 -29 -29h-233v-233h203q29 0 28 -29v-182q0 -29 -28 -29h-203v-487q0 -29 -29 -29h-182q-29 0 -29 29z" />
<glyph unicode="g" d="M72 244v741q0 53 20.5 100.5t55 82t81.5 55t101 20.5h78q53 0 100 -20.5t82 -55t55.5 -82t20.5 -100.5v-45q0 -29 -27 -37l-186 -67q-27 -8 -27 20v119q0 20 -14.5 34.5t-34.5 14.5h-17q-20 0 -34.5 -14.5t-14.5 -34.5v-721q0 -20 14.5 -34.5t34.5 -14.5h17q20 0 34.5 14 t14.5 35v221h-57v234h268q29 0 29 -29v-436q0 -53 -20.5 -100.5t-55.5 -82t-82 -55t-100 -20.5h-78q-53 0 -100.5 20.5t-82 55t-55 82t-20.5 100.5z" />
<glyph unicode="h" horiz-adv-x="798" d="M92 29v1171q0 29 29 29h182q29 0 29 -29v-469h135v469q0 29 29 29h182q29 0 29 -29v-1171q0 -29 -29 -29h-182q-29 0 -29 29v463h-135v-463q0 -29 -29 -29h-182q-29 0 -29 29z" />
<glyph unicode="i" horiz-adv-x="423" d="M92 29v1171q0 29 29 29h182q29 0 29 -29v-1171q0 -29 -29 -29h-182q-29 0 -29 29z" />
<glyph unicode="j" horiz-adv-x="727" d="M51 244v219q0 29 27 37l186 49q27 8 27 -21v-274q0 -20 14 -34.5t35 -14.5h16q20 0 35 14t15 35v946q0 29 28 29h182q29 0 29 -29v-956q0 -53 -20.5 -100.5t-55 -82t-82 -55t-100.5 -20.5h-78q-53 0 -100 20.5t-82 55t-55.5 82t-20.5 100.5z" />
<glyph unicode="k" horiz-adv-x="825" d="M92 29v1171q0 29 29 29h182q29 0 29 -29v-358l188 362q10 25 39 25h205q12 0 16 -9q2 -5 2 -10t-2 -10l-278 -522l274 -649q4 -10 -2 -19.5t-18 -9.5h-203q-12 0 -22.5 7t-14.5 18l-149 340l-35 -66v-270q0 -29 -29 -29h-182q-29 0 -29 29z" />
<glyph unicode="l" horiz-adv-x="675" d="M102 29v1171q0 29 29 29h182q29 0 29 -29v-960h254q29 0 29 -29v-182q0 -29 -29 -29h-277h-4h-2h-182q-29 0 -29 29z" />
<glyph unicode="m" horiz-adv-x="983" d="M92 29v1171q0 29 29 29h174q12 0 21.5 -9.5t13.5 -19.5l162 -631l161 631q4 10 13.5 19.5t21.5 9.5h174q29 0 29 -29v-1171q0 -29 -29 -29h-196q-29 0 -29 29v544l-135 -487q-4 -10 -10.5 -10t-10.5 10l-135 487v-544q0 -29 -29 -29h-196q-29 0 -29 29z" />
<glyph unicode="n" horiz-adv-x="839" d="M92 29v1171q0 29 29 29h135q12 0 23.5 -8.5t15.5 -18.5l213 -596v594q0 29 29 29h182q29 0 29 -29v-1171q0 -29 -29 -29h-131q-12 0 -23.5 8t-15.5 19l-217 534v-532q0 -29 -29 -29h-182q-29 0 -29 29z" />
<glyph unicode="o" d="M72 244v741q0 53 20.5 100.5t55 82t81.5 55t101 20.5h78q53 0 100 -20.5t82 -55t55.5 -82t20.5 -100.5v-741q0 -53 -20.5 -100.5t-55.5 -82t-82 -55t-100 -20.5h-78q-53 0 -100.5 20.5t-82 55t-55 82t-20.5 100.5zM311 254q0 -20 14.5 -34.5t34.5 -14.5h17q20 0 34.5 14 t14.5 35v721q0 20 -14.5 34.5t-34.5 14.5h-17q-20 0 -34.5 -14.5t-14.5 -34.5v-721z" />
<glyph unicode="p" horiz-adv-x="727" d="M92 29v1171q0 29 29 29h307q53 0 100 -20.5t82 -55.5t55.5 -82t20.5 -100v-273q0 -53 -20.5 -100t-55.5 -82t-82 -55.5t-100 -20.5h-96v-411q0 -29 -29 -29h-182q-29 0 -29 29zM332 659h65q20 0 34.5 14.5t14.5 35.5v252q0 20 -14 34.5t-35 14.5h-65v-351z" />
<glyph unicode="q" horiz-adv-x="745" d="M72 244v741q0 53 20.5 100.5t55 82t81.5 55t101 20.5h78q53 0 100 -20.5t82 -55t55.5 -82t20.5 -100.5v-741q0 -57 -22.5 -107.5t-63.5 -85.5l88 -133q4 -7 4 -14q0 -4 -1 -7q-3 -11 -14 -16l-141 -63q-10 -4 -18 -4q-16 0 -27 16l-104 156h-37q-53 0 -100.5 20.5t-82 55 t-55 82t-20.5 100.5zM311 254q0 -20 14.5 -34.5t34.5 -14.5h17q20 0 34.5 14t14.5 35v721q0 20 -14.5 34.5t-34.5 14.5h-17q-20 0 -34.5 -14.5t-14.5 -34.5v-721z" />
<glyph unicode="r" horiz-adv-x="770" d="M92 29v1171q0 29 29 29h307q53 0 100 -20.5t82 -55.5t55.5 -82t20.5 -100v-252q0 -76 -45 -136.5t-109 -93.5l195 -460q1 -5 1 -10q0 -19 -21 -19h-187q-12 0 -23.5 8t-15.5 21l-149 379v-379q0 -29 -31 -29h-182q-27 0 -27 29zM332 680h65q20 0 34.5 14.5t14.5 34.5v232 q0 20 -14 34.5t-35 14.5h-65v-330z" />
<glyph unicode="s" horiz-adv-x="716" d="M61 244v114q0 29 27 37l186 49q27 8 27 -20v-170q0 -20 14.5 -34.5t34.5 -14.5h17q20 0 34.5 14t14.5 35v127q-2 27 -8.5 47.5t-24.5 36.5l-264 203q-31 29 -44.5 57.5t-13.5 75.5v184q0 53 20.5 100.5t55.5 82t82 55t100 20.5h78q53 0 100.5 -20.5t82 -55t55 -82 t20.5 -100.5v-78q0 -29 -26 -37l-187 -49q-27 -8 -26 21v133q0 20 -14.5 34.5t-34.5 14.5h-17q-20 0 -34.5 -14.5t-14.5 -34.5v-125q2 -23 8 -39t23 -33l268 -200q33 -29 42 -59t13 -66v-209q0 -53 -20.5 -100.5t-55 -82t-81.5 -55t-101 -20.5h-78q-53 0 -100 20.5t-82 55 t-55.5 82t-20.5 100.5z" />
<glyph unicode="t" horiz-adv-x="688" d="M51 1018v182q0 29 29 29h528q29 0 29 -29v-182q0 -29 -29 -29h-145v-960q0 -29 -29 -29h-182q-10 0 -19.5 8t-9.5 21v960h-143q-29 0 -29 29z" />
<glyph unicode="u" d="M72 244v956q0 29 28 29h183q29 0 28 -29v-946q0 -20 14.5 -34.5t34.5 -14.5h17q20 0 34.5 14t14.5 35v946q0 29 29 29h182q29 0 29 -29v-956q0 -53 -20.5 -100.5t-55.5 -82t-82 -55t-100 -20.5h-78q-53 0 -100.5 20.5t-82 55t-55 82t-20.5 100.5z" />
<glyph unicode="v" horiz-adv-x="774" d="M23 1200q-4 29 24 29h221q27 0 31 -29l84 -766h8l84 766q4 29 31 29h221q29 0 25 -29l-242 -1171q-4 -29 -33 -29h-180q-29 0 -33 29z" />
<glyph unicode="w" horiz-adv-x="1124" d="M23 1200q-4 29 24 29h221q27 0 31 -29l72 -692h8l78 692q4 29 30 29h150q27 0 31 -29l77 -692h9l71 692q4 29 31 29h221q29 0 25 -29l-221 -1171q-4 -29 -33 -29h-180q-29 0 -33 29l-72 428h-2l-72 -428q-4 -29 -32 -29h-181q-29 0 -32 29z" />
<glyph unicode="x" horiz-adv-x="774" d="M63 29l168 587l-168 584q-1 4 -1 7q0 6 5 13q7 9 19 9h190q29 0 33 -29l78 -303l78 303q4 29 33 29h190q12 0 20 -9q5 -6 4 -13q0 -4 -1 -7l-168 -584l168 -587q1 -5 1 -10q0 -19 -24 -19h-190q-29 0 -33 29l-78 303l-78 -303q-4 -29 -33 -29h-190q-12 0 -19 8 q-5 5 -5 12q0 5 1 9z" />
<glyph unicode="y" horiz-adv-x="757" d="M23 1200q-2 4 -2 8q0 6 4 12q6 9 18 9h217q29 0 33 -29l82 -393h8l82 393q4 29 33 29h217q12 0 18 -9q4 -6 4 -12q0 -4 -2 -8l-235 -725v-446q0 -29 -29 -29h-184q-29 0 -29 29v446z" />
<glyph unicode="z" horiz-adv-x="722" d="M61 1028v172q0 29 29 29h539q12 0 19 -9.5t3 -19.5l-284 -971h266q29 0 29 -28v-172q0 -29 -29 -29h-543q-12 0 -19.5 8t-2.5 21l284 970h-262q-29 0 -29 29z" />
<glyph unicode="{" horiz-adv-x="606" d="M82 666v102q0 14 8 23q8 8 23 8h59q25 -2 45 4q16 4 31.5 18.5t19.5 42.5q2 16 -6 40t-20.5 48.5t-25.5 47t-19 36.5q-29 55 -51.5 123t-26.5 146q-4 72 21.5 123t58.5 85q37 37 86 64q27 12 61 20q29 6 67 10.5t81 -5.5q6 -2 14 -9q16 -12 16 -32v-117q0 -12 -8 -21 q-8 -8 -22 -8h-68q-31 0 -53 -10q-20 -10 -35.5 -30.5t-11.5 -61.5q2 -35 14 -74t29 -80q16 -41 34.5 -80t32.5 -75q27 -68 29 -125q2 -49 -20.5 -96.5t-94.5 -65.5q72 -20 94.5 -66.5t20.5 -95.5q-2 -57 -29 -125q-14 -39 -32.5 -77t-34.5 -79t-28.5 -79.5t-14.5 -73.5 q-4 -41 11 -61.5t36 -30.5q23 -10 53 -11h68q14 0 22 -8t8 -20v-117q0 -14 -5 -21.5t-11 -11.5q-8 -6 -14 -8q-43 -10 -81 -8t-67 10q-35 8 -61 23q-49 25 -86 63q-33 33 -58.5 85t-21.5 124q4 78 26.5 145.5t51.5 122.5q6 14 19 36t25.5 46.5t20.5 49t6 40.5 q-4 29 -19.5 43.5t-31.5 18.5q-20 6 -45 4h-59q-14 0 -23 8q-8 9 -8 23z" />
<glyph unicode="|" horiz-adv-x="327" d="M82 -166v1765q0 29 29 29h106q29 0 29 -29v-1765q0 -29 -29 -29h-106q-29 0 -29 29z" />
<glyph unicode="}" horiz-adv-x="606" d="M82 -10q0 12 8 20t23 8h67q31 0 53 11q20 10 35 30.5t13 61.5q-2 35 -14.5 73.5t-28.5 79.5t-35 79t-33 77q-27 68 -29 125q-2 49 20.5 95t94.5 67q-72 18 -94.5 65t-20.5 97q2 57 29 125q14 37 32.5 75.5t35.5 79.5q16 41 28.5 80t14.5 74q2 41 -12.5 61.5t-35.5 30.5 q-23 10 -53 10h-67q-14 0 -23 8q-8 8 -8 21v117q0 23 14 32q8 6 17 9q41 10 79.5 6t67.5 -11q35 -8 62 -20q49 -27 86 -64q33 -35 58.5 -86t20.5 -122q-4 -78 -26.5 -145.5t-50.5 -123.5q-6 -14 -19.5 -36.5t-26 -47t-20.5 -48t-6 -40.5q4 -29 19.5 -43t31.5 -18 q20 -6 45 -4h60q14 0 22 -8t8 -23v-102q0 -14 -8 -23q-8 -8 -22 -8h-60q-25 2 -45 -4q-16 -4 -31.5 -18.5t-19.5 -43.5q-2 -16 6 -40.5t20.5 -49t25.5 -46t20 -36.5q29 -55 51 -122.5t26 -145.5q4 -72 -21.5 -124t-57.5 -85q-37 -39 -86 -63q-27 -14 -62 -23 q-29 -8 -67.5 -10t-79.5 8q-8 2 -17 8q-14 10 -14 33v117z" />
<glyph unicode="&#xa2;" d="M72 457v528q0 96 60.5 167t152.5 87v166q0 29 28 29h111q29 0 29 -29v-166q92 -16 152.5 -87t60.5 -167v-59q0 -29 -27 -37l-186 -29q-27 -8 -27 21v94q0 20 -14.5 34.5t-34.5 14.5h-17q-20 0 -34.5 -14.5t-14.5 -34.5v-508q0 -20 14.5 -34.5t34.5 -14.5h17q20 0 34.5 14 t14.5 35v186q0 29 27 21l186 -25q27 -8 27 -37v-155q0 -96 -60.5 -167t-152.5 -87v-174q0 -29 -29 -29h-111q-29 0 -28 29v174q-92 16 -152.5 87t-60.5 167z" />
<glyph unicode="&#xa9;" horiz-adv-x="532" d="M41 1223q0 47 17.5 88t48 71.5t71.5 48t88 17.5t88 -17.5t72 -48t48.5 -71.5t17.5 -88t-17.5 -88t-48.5 -72t-72 -48.5t-88 -17.5t-88 17.5t-71.5 48.5t-48 72t-17.5 88zM82 1223q0 -78 53 -131.5t131 -53.5t131.5 53.5t53.5 131.5t-53.5 131t-131.5 53t-131 -53 t-53 -131zM190 1135v178q0 29 18.5 47t47.5 18h20q29 0 47.5 -18.5t18.5 -46.5v-43q0 -8 -6 -8l-49 -9q-6 -4 -6 7v51q0 12 -13 12h-4q-12 0 -12 -12v-174q0 -12 12 -13h4q12 0 13 13v57q0 6 6 6l49 -8q6 -4 6 -8v-49q0 -29 -18.5 -47.5t-47.5 -18.5h-20q-29 0 -47.5 18.5 t-18.5 47.5z" />
<glyph unicode="&#xaa;" horiz-adv-x="729" d="M43 29l154 1171q4 29 32 29h271q29 0 32 -29l154 -1171q4 -29 -24 -29h-187q-27 0 -31 29l-16 200h-127l-16 -200q-4 -29 -31 -29h-186q-29 0 -25 29zM317 459h95l-39 452h-17z" />
<glyph unicode="&#xad;" horiz-adv-x="610" d="M61 672v155q0 29 29 29h430q29 0 29 -29v-155q0 -29 -29 -29h-430q-29 0 -29 29z" />
<glyph unicode="&#xae;" horiz-adv-x="532" d="M41 1223q0 47 17.5 88t48 71.5t71.5 48t88 17.5t88 -17.5t72 -48t48.5 -71.5t17.5 -88t-17.5 -88t-48.5 -72t-72 -48.5t-88 -17.5t-88 17.5t-71.5 48.5t-48 72t-17.5 88zM82 1223q0 -78 53 -131.5t131 -53.5t131.5 53.5t53.5 131.5t-53.5 131t-131.5 53t-131 -53 t-53 -131zM203 1087v275q0 8 6 8h67q27 0 43.5 -19.5t16.5 -45.5v-37q0 -18 -8.5 -33.5t-28.5 -22.5l47 -125q2 -6 -4 -6h-47q-6 0 -8 6l-33 105v-107q0 -4 -6 -4h-39q-6 0 -6 6zM254 1253h16q12 0 13 13v37q0 12 -13 12h-16v-62z" />
<glyph unicode="&#xb0;" horiz-adv-x="344" d="M41 1331q0 53 39 92t92 39t92 -39t39 -92t-39 -92t-92 -39t-92 39t-39 92zM94 1331q0 -33 22.5 -55.5t55.5 -22.5t55.5 22.5t22.5 55.5t-22.5 55.5t-55.5 22.5t-55.5 -22.5t-22.5 -55.5z" />
<glyph unicode="&#xb2;" horiz-adv-x="759" d="M82 979v211q0 53 20.5 100t55.5 82t82 55.5t100 20.5h78q53 0 100 -20.5t82 -55.5t55.5 -82t20.5 -100v-123v-121q0 -63 -15.5 -122.5t-50.5 -112.5q-31 -49 -66.5 -100.5t-68.5 -100.5q-6 -10 -12 -19.5t-12 -19.5q-31 -49 -51.5 -92t-32.5 -76q-14 -37 -25 -72h317 q18 0 19 -18v-195q0 -18 -19 -18h-540q-14 0 -19 18q-6 39 -7 77t1 69q2 37 8 69q4 39 14.5 74t20.5 64q12 33 27 59q53 96 100 170t84 127q43 61 80 107q10 23 8 43t0 61v242q0 20 -14 34.5t-35 14.5h-16q-20 0 -34.5 -14.5t-14.5 -34.5v-136q0 -29 -27 -36l-186 -50 q-27 -8 -27 21z" />
<glyph unicode="&#xb3;" horiz-adv-x="757" d="M82 244v223q0 29 27 37l186 49q27 8 27 -21v-278q0 -20 14 -34.5t35 -14.5h16q20 0 34.5 14t14.5 35v352q0 16 -2 32.5t-8 25.5q-4 4 -11 10t-26 6h-96q-10 0 -17.5 7t-7.5 18v151q0 10 7.5 17.5t17.5 7.5h96q14 0 23.5 7t13.5 11q10 10 10 43v238q0 20 -14 34.5 t-35 14.5h-16q-20 0 -34.5 -14.5t-14.5 -34.5v-136q0 -29 -27 -36l-186 -50q-27 -8 -27 21v211q0 53 20.5 100t55.5 82t82 55.5t100 20.5h78q53 0 100 -20.5t82 -55.5t55.5 -82t20.5 -100v-232q0 -14 -1 -27t-3 -26q-10 -49 -39 -82q-27 -27 -60 -41q33 -12 60 -34 q18 -18 33 -54q10 -45 10 -88v-362q0 -53 -20.5 -100.5t-55.5 -82t-82 -55t-100 -20.5h-78q-53 0 -100 20.5t-82 55t-55.5 82t-20.5 100.5z" />
<glyph unicode="&#xb6;" horiz-adv-x="985" d="M82 842v334q0 53 20.5 100t55.5 82t82 55.5t100 20.5h534q29 0 29 -29v-1376q0 -29 -29 -29h-92q-29 0 -28 29v1185h-78v-1185q0 -29 -29 -29h-182q-29 0 -29 29v555h-96q-53 0 -100 20.5t-82 55t-55.5 82t-20.5 100.5zM322 852q0 -20 14 -34.5t35 -14.5h65v411h-65 q-20 0 -34.5 -14t-14.5 -35v-313z" />
<glyph unicode="&#xb9;" horiz-adv-x="577" d="M82 1014v153q0 10 7 18.5t17 10.5q47 18 87 51q35 27 64.5 69t37.5 101q6 16 22 17h152q27 -4 27 -29v-1376q0 -29 -29 -29h-182q-29 0 -29 29v1028q-27 -20 -66.5 -41t-74.5 -27q-14 -4 -23 4q-10 7 -10 21z" />
<glyph unicode="&#xba;" d="M72 244v741q0 53 20.5 100.5t55 82t81.5 55t101 20.5h78q53 0 100 -20.5t82 -55t55.5 -82t20.5 -100.5v-741q0 -53 -20.5 -100.5t-55.5 -82t-82 -55t-100 -20.5h-78q-53 0 -100.5 20.5t-82 55t-55 82t-20.5 100.5zM311 254q0 -20 14.5 -34.5t34.5 -14.5h17q20 0 34.5 14 t14.5 35v721q0 20 -14.5 34.5t-34.5 14.5h-17q-20 0 -34.5 -14.5t-14.5 -34.5v-721z" />
<glyph unicode="&#xbc;" horiz-adv-x="1974" d="M1217 315v174q0 10 2 15q0 4 2 6q80 156 132 302t83 266t44 206t18 123q0 6 4 12l9 9q5 5 15 6h246q29 0 29 -29v-893h65q6 0 19 -8q8 -8 8 -19v-170q0 -12 -8 -20q-12 -8 -19 -8h-65v-258q0 -29 -29 -29h-182q-29 0 -29 29v258h-317q-10 0 -19 8q-8 6 -8 20zM1409 512 h150v471q-12 -63 -33 -139q-16 -66 -46 -150t-71 -182zM580 27l426 1380q8 27 37 27h110q12 0 18.5 -9.5t2.5 -19.5l-426 -1378q-8 -27 -37 -27h-110q-29 0 -21 27zM82 1014v153q0 10 7 18.5t17 10.5q47 18 87 51q35 27 64.5 69t37.5 101q6 16 22 17h152q27 -4 27 -29v-1376 q0 -29 -29 -29h-182q-29 0 -29 29v1028q-27 -20 -66.5 -41t-74.5 -27q-14 -4 -23 4q-10 7 -10 21z" />
<glyph unicode="&#xbd;" horiz-adv-x="1935" d="M1258 979v211q0 53 20.5 100t55.5 82t82 55.5t100 20.5h78q53 0 100 -20.5t82 -55.5t55.5 -82t20.5 -100v-123v-121q0 -63 -15.5 -122.5t-50.5 -112.5q-31 -49 -66.5 -100.5t-68.5 -100.5q-6 -10 -12 -19.5t-12 -19.5q-31 -49 -51.5 -92t-32.5 -76q-14 -37 -25 -72h317 q18 0 19 -18v-195q0 -18 -19 -18h-540q-14 0 -19 18q-6 39 -7 77t1 69q2 37 8 69q4 39 14.5 74t20.5 64q12 33 27 59q53 96 100 170t84 127q43 61 80 107q10 23 8 43t0 61v242q0 20 -14 34.5t-35 14.5h-16q-20 0 -34.5 -14.5t-14.5 -34.5v-136q0 -29 -27 -36l-186 -50 q-27 -8 -27 21zM580 27l426 1380q8 27 37 27h110q12 0 18.5 -9.5t2.5 -19.5l-426 -1378q-8 -27 -37 -27h-110q-29 0 -21 27zM82 1014v153q0 10 7 18.5t17 10.5q47 18 87 51q35 27 64.5 69t37.5 101q6 16 22 17h152q27 -4 27 -29v-1376q0 -29 -29 -29h-182q-29 0 -29 29v1028 q-27 -20 -66.5 -41t-74.5 -27q-14 -4 -23 4q-10 7 -10 21z" />
<glyph unicode="&#xbe;" horiz-adv-x="2154" d="M1397 315v174q0 10 2 15q0 4 2 6q80 156 132 302t83 266t44 206t18 123q0 6 4 12l9 9q5 5 15 6h246q29 0 29 -29v-893h65q6 0 19 -8q8 -8 8 -19v-170q0 -12 -8 -20q-12 -8 -19 -8h-65v-258q0 -29 -29 -29h-182q-29 0 -29 29v258h-317q-10 0 -19 8q-8 6 -8 20zM1589 512 h150v471q-12 -63 -33 -139q-16 -66 -46 -150t-71 -182zM760 27l426 1380q8 27 37 27h110q12 0 18.5 -9.5t2.5 -19.5l-426 -1378q-8 -27 -37 -27h-110q-29 0 -21 27zM82 244v223q0 29 27 37l186 49q27 8 27 -21v-278q0 -20 14 -34.5t35 -14.5h16q20 0 34.5 14t14.5 35v352 q0 16 -2 32.5t-8 25.5q-4 4 -11 10t-26 6h-96q-10 0 -17.5 7t-7.5 18v151q0 10 7.5 17.5t17.5 7.5h96q14 0 23.5 7t13.5 11q10 10 10 43v238q0 20 -14 34.5t-35 14.5h-16q-20 0 -34.5 -14.5t-14.5 -34.5v-136q0 -29 -27 -36l-186 -50q-27 -8 -27 21v211q0 53 20.5 100 t55.5 82t82 55.5t100 20.5h78q53 0 100 -20.5t82 -55.5t55.5 -82t20.5 -100v-232q0 -14 -1 -27t-3 -26q-10 -49 -39 -82q-27 -27 -60 -41q33 -12 60 -34q18 -18 33 -54q10 -45 10 -88v-362q0 -53 -20.5 -100.5t-55.5 -82t-82 -55t-100 -20.5h-78q-53 0 -100 20.5t-82 55 t-55.5 82t-20.5 100.5z" />
<glyph unicode="&#xbf;" horiz-adv-x="782" d="M74 371q-2 -63 9 -132t46 -125.5t99.5 -92t168.5 -35.5q150 0 232 89t82 257v155q0 23 -23 19l-194 -47q-23 -8 -23 -29v-108q0 -47 -17.5 -76t-56.5 -29q-53 0 -67.5 40t-14.5 110v42q0 17 5.5 34.5t14.5 37t27 47.5q31 47 65 88t59.5 81t42 81t14.5 88q-2 8 -3 39 t-5 66l-9 90q-4 23 -26 22h-86q-10 0 -17.5 -6t-7.5 -16l-2 -31q-4 -39 -10 -87t-19 -77q-20 -45 -56 -84t-73 -82q-55 -66 -85.5 -102.5t-46 -67t-18.5 -65.5t-5 -94zM319 1317q0 53 39 92t93 39q53 0 92 -39t39 -92t-39 -92t-92 -39t-92.5 39t-39.5 92z" />
<glyph unicode="&#xc2;" horiz-adv-x="729" d="M84 1583q-6 18 4 33l254 286q6 10 21 11h4q10 0 20 -11l254 -286q10 -14 4 -33q-4 -12 -24 -12h-129q-16 0 -23 10l-104 143l-105 -143q-10 -10 -22 -10h-129q-21 0 -25 12zM43 29l154 1376q4 29 32 29h271q29 0 32 -29l154 -1376q4 -29 -24 -29h-187q-27 0 -31 29 l-16 221h-127l-16 -221q-4 -29 -31 -29h-186q-29 0 -25 29zM317 479h95l-39 555h-17z" />
<glyph unicode="&#xc5;" horiz-adv-x="729" d="M234 1571q0 53 39 92t92 39t92 -39t39 -92t-39 -92t-92 -39t-92 39t-39 92zM287 1571q0 -33 22.5 -55.5t55.5 -22.5t55.5 22.5t22.5 55.5t-22.5 55.5t-55.5 22.5t-55.5 -22.5t-22.5 -55.5zM43 29l154 1376q4 29 32 29h271q29 0 32 -29l154 -1376q4 -29 -24 -29h-187 q-27 0 -31 29l-16 221h-127l-16 -221q-4 -29 -31 -29h-186q-29 0 -25 29zM317 479h95l-39 555h-17z" />
<glyph unicode="&#xca;" horiz-adv-x="675" d="M61 1583q-6 18 4 33l254 286q6 10 21 11h4q10 0 20 -11l254 -286q10 -14 4 -33q-4 -12 -24 -12h-129q-16 0 -23 10l-104 143l-105 -143q-10 -10 -22 -10h-129q-21 0 -25 12zM92 29v1376q0 29 29 29h444q29 0 29 -29v-182q0 -29 -29 -29h-233v-295h203q29 0 28 -29v-182 q0 -29 -28 -29h-203v-419h233q29 0 29 -29v-182q0 -29 -29 -29h-444q-29 0 -29 29z" />
<glyph unicode="&#xce;" horiz-adv-x="423" d="M-70 1583q-6 18 4 33l254 286q6 10 21 11h4q10 0 20 -11l254 -286q10 -14 4 -33q-4 -12 -24 -12h-129q-16 0 -23 10l-104 143l-105 -143q-10 -10 -22 -10h-129q-21 0 -25 12zM92 29v1376q0 29 29 29h182q29 0 29 -29v-1376q0 -29 -29 -29h-182q-29 0 -29 29z" />
<glyph unicode="&#xd4;" d="M88 1583q-6 18 4 33l254 286q6 10 21 11h4q10 0 20 -11l254 -286q10 -14 4 -33q-4 -12 -24 -12h-129q-16 0 -23 10l-104 143l-105 -143q-10 -10 -22 -10h-129q-21 0 -25 12zM72 244v946q0 53 20.5 100t55 82t81.5 55.5t101 20.5h78q53 0 100 -20.5t82 -55.5t55.5 -82 t20.5 -100v-946q0 -53 -20.5 -100.5t-55.5 -82t-82 -55t-100 -20.5h-78q-53 0 -100.5 20.5t-82 55t-55 82t-20.5 100.5zM311 254q0 -20 14.5 -34.5t34.5 -14.5h17q20 0 34.5 14t14.5 35v926q0 20 -14.5 34.5t-34.5 14.5h-17q-20 0 -34.5 -14.5t-14.5 -34.5v-926z" />
<glyph unicode="&#xd7;" horiz-adv-x="727" d="M41 551q0 12 8 20l178 179l-178 178q-8 8 -8 20.5t8 20.5l111 110q8 8 20.5 8t20.5 -8l178 -178l178 178q8 8 20.5 8t20.5 -8l111 -110q8 -8 8 -20.5t-8 -20.5l-179 -178l179 -179q8 -8 8 -20t-8 -21l-111 -110q-8 -8 -20.5 -8t-20.5 8l-178 178l-178 -178 q-8 -8 -20.5 -8t-20.5 8l-111 110q-8 9 -8 21z" />
<glyph unicode="&#xdb;" d="M88 1583q-6 18 4 33l254 286q6 10 21 11h4q10 0 20 -11l254 -286q10 -14 4 -33q-4 -12 -24 -12h-129q-16 0 -23 10l-104 143l-105 -143q-10 -10 -22 -10h-129q-21 0 -25 12zM72 244v1161q0 29 28 29h183q29 0 28 -29v-1151q0 -20 14.5 -34.5t34.5 -14.5h17q20 0 34.5 14 t14.5 35v1151q0 29 29 29h182q29 0 29 -29v-1161q0 -53 -20.5 -100.5t-55.5 -82t-82 -55t-100 -20.5h-78q-53 0 -100.5 20.5t-82 55t-55 82t-20.5 100.5z" />
<glyph unicode="&#xe2;" horiz-adv-x="729" d="M84 1378q-6 18 4 33l254 286q6 10 21 11h4q10 0 20 -11l254 -286q10 -14 4 -33q-4 -12 -24 -12h-129q-16 0 -23 10l-104 143l-105 -143q-10 -10 -22 -10h-129q-21 0 -25 12zM43 29l154 1171q4 29 32 29h271q29 0 32 -29l154 -1171q4 -29 -24 -29h-187q-27 0 -31 29 l-16 200h-127l-16 -200q-4 -29 -31 -29h-186q-29 0 -25 29zM317 459h95l-39 452h-17z" />
<glyph unicode="&#xe5;" horiz-adv-x="729" d="M234 1497q0 53 39 92t92 39t92 -39t39 -92t-39 -92t-92 -39t-92 39t-39 92zM287 1497q0 -33 22.5 -55.5t55.5 -22.5t55.5 22.5t22.5 55.5t-22.5 55.5t-55.5 22.5t-55.5 -22.5t-22.5 -55.5zM43 29l154 1171q4 29 32 29h271q29 0 32 -29l154 -1171q4 -29 -24 -29h-187 q-27 0 -31 29l-16 200h-127l-16 -200q-4 -29 -31 -29h-186q-29 0 -25 29zM317 459h95l-39 452h-17z" />
<glyph unicode="&#xea;" horiz-adv-x="675" d="M61 1378q-6 18 4 33l254 286q6 10 21 11h4q10 0 20 -11l254 -286q10 -14 4 -33q-4 -12 -24 -12h-129q-16 0 -23 10l-104 143l-105 -143q-10 -10 -22 -10h-129q-21 0 -25 12zM92 29v1171q0 29 29 29h444q29 0 29 -29v-182q0 -29 -29 -29h-233v-233h203q29 0 28 -29v-182 q0 -29 -28 -29h-203v-276h233q29 0 29 -29v-182q0 -29 -29 -29h-444q-29 0 -29 29z" />
<glyph unicode="&#xee;" horiz-adv-x="423" d="M-70 1378q-6 18 4 33l254 286q6 10 21 11h4q10 0 20 -11l254 -286q10 -14 4 -33q-4 -12 -24 -12h-129q-16 0 -23 10l-104 143l-105 -143q-10 -10 -22 -10h-129q-21 0 -25 12zM92 29v1171q0 29 29 29h182q29 0 29 -29v-1171q0 -29 -29 -29h-182q-29 0 -29 29z" />
<glyph unicode="&#xf4;" d="M88 1378q-6 18 4 33l254 286q6 10 21 11h4q10 0 20 -11l254 -286q10 -14 4 -33q-4 -12 -24 -12h-129q-16 0 -23 10l-104 143l-105 -143q-10 -10 -22 -10h-129q-21 0 -25 12zM72 244v741q0 53 20.5 100.5t55 82t81.5 55t101 20.5h78q53 0 100 -20.5t82 -55t55.5 -82 t20.5 -100.5v-741q0 -53 -20.5 -100.5t-55.5 -82t-82 -55t-100 -20.5h-78q-53 0 -100.5 20.5t-82 55t-55 82t-20.5 100.5zM311 254q0 -20 14.5 -34.5t34.5 -14.5h17q20 0 34.5 14t14.5 35v721q0 20 -14.5 34.5t-34.5 14.5h-17q-20 0 -34.5 -14.5t-14.5 -34.5v-721z" />
<glyph unicode="&#xf7;" horiz-adv-x="897" d="M61 672v155q0 29 29 29h717q29 0 29 -29v-155q0 -29 -29 -29h-717q-29 0 -29 29zM317 444q0 53 39 92t93 39q53 0 92 -38.5t39 -92.5q0 -53 -39 -92t-92 -39t-92.5 39t-39.5 92zM317 1055q0 53 39 92t93 39q53 0 92 -39t39 -92t-39 -92t-92 -39t-92.5 39t-39.5 92z" />
<glyph unicode="&#xfb;" d="M88 1378q-6 18 4 33l254 286q6 10 21 11h4q10 0 20 -11l254 -286q10 -14 4 -33q-4 -12 -24 -12h-129q-16 0 -23 10l-104 143l-105 -143q-10 -10 -22 -10h-129q-21 0 -25 12zM72 244v956q0 29 28 29h183q29 0 28 -29v-946q0 -20 14.5 -34.5t34.5 -14.5h17q20 0 34.5 14 t14.5 35v946q0 29 29 29h182q29 0 29 -29v-956q0 -53 -20.5 -100.5t-55.5 -82t-82 -55t-100 -20.5h-78q-53 0 -100.5 20.5t-82 55t-55 82t-20.5 100.5z" />
<glyph unicode="&#x152;" horiz-adv-x="1413" d="M829 29v1376q0 29 29 29h444q29 0 29 -29v-182q0 -29 -29 -29h-233v-295h203q29 0 28 -29v-182q0 -29 -28 -29h-203v-419h233q29 0 29 -29v-182q0 -29 -29 -29h-444q-29 0 -29 29zM72 244v946q0 53 20.5 100t55 82t81.5 55.5t101 20.5h78q53 0 100 -20.5t82 -55.5 t55.5 -82t20.5 -100v-946q0 -53 -20.5 -100.5t-55.5 -82t-82 -55t-100 -20.5h-78q-53 0 -100.5 20.5t-82 55t-55 82t-20.5 100.5zM311 254q0 -20 14.5 -34.5t34.5 -14.5h17q20 0 34.5 14t14.5 35v926q0 20 -14.5 34.5t-34.5 14.5h-17q-20 0 -34.5 -14.5t-14.5 -34.5v-926z " />
<glyph unicode="&#x153;" horiz-adv-x="1413" d="M829 29v1171q0 29 29 29h444q29 0 29 -29v-182q0 -29 -29 -29h-233v-233h203q29 0 28 -29v-182q0 -29 -28 -29h-203v-276h233q29 0 29 -29v-182q0 -29 -29 -29h-444q-29 0 -29 29zM72 244v741q0 53 20.5 100.5t55 82t81.5 55t101 20.5h78q53 0 100 -20.5t82 -55t55.5 -82 t20.5 -100.5v-741q0 -53 -20.5 -100.5t-55.5 -82t-82 -55t-100 -20.5h-78q-53 0 -100.5 20.5t-82 55t-55 82t-20.5 100.5zM311 254q0 -20 14.5 -34.5t34.5 -14.5h17q20 0 34.5 14t14.5 35v721q0 20 -14.5 34.5t-34.5 14.5h-17q-20 0 -34.5 -14.5t-14.5 -34.5v-721z" />
<glyph unicode="&#x2c6;" horiz-adv-x="569" d="M4 1104q-6 18 4 33l254 286q6 10 21 11h4q10 0 20 -11l254 -286q10 -14 4 -33q-4 -12 -24 -12h-129q-16 0 -23 10l-104 143l-105 -143q-10 -10 -22 -10h-129q-21 0 -25 12z" />
<glyph unicode="&#x2000;" horiz-adv-x="956" />
<glyph unicode="&#x2001;" horiz-adv-x="1912" />
<glyph unicode="&#x2002;" horiz-adv-x="956" />
<glyph unicode="&#x2003;" horiz-adv-x="1912" />
<glyph unicode="&#x2004;" horiz-adv-x="636" />
<glyph unicode="&#x2005;" horiz-adv-x="477" />
<glyph unicode="&#x2006;" horiz-adv-x="317" />
<glyph unicode="&#x2007;" horiz-adv-x="317" />
<glyph unicode="&#x2008;" horiz-adv-x="237" />
<glyph unicode="&#x2009;" horiz-adv-x="380" />
<glyph unicode="&#x200a;" horiz-adv-x="104" />
<glyph unicode="&#x2010;" horiz-adv-x="610" d="M61 672v155q0 29 29 29h430q29 0 29 -29v-155q0 -29 -29 -29h-430q-29 0 -29 29z" />
<glyph unicode="&#x2011;" horiz-adv-x="610" d="M61 672v155q0 29 29 29h430q29 0 29 -29v-155q0 -29 -29 -29h-430q-29 0 -29 29z" />
<glyph unicode="&#x2012;" horiz-adv-x="610" d="M61 672v155q0 29 29 29h430q29 0 29 -29v-155q0 -29 -29 -29h-430q-29 0 -29 29z" />
<glyph unicode="&#x2013;" horiz-adv-x="720" d="M61 672v155q0 29 29 29h541q29 0 28 -29v-155q0 -29 -28 -29h-541q-29 0 -29 29z" />
<glyph unicode="&#x2014;" horiz-adv-x="897" d="M61 672v155q0 29 29 29h717q29 0 29 -29v-155q0 -29 -29 -29h-717q-29 0 -29 29z" />
<glyph unicode="&#x2018;" horiz-adv-x="280" d="M1 1198.5q-1 20.5 3 40.5q8 55 33.5 100t73.5 76q12 8 25.5 15.5t27.5 11.5q2 0 12 2l21 4q4 0 8 -2q8 -4 8 -14v-31q0 -4 -2 -6q-4 -6 -10 -6q-10 0 -23.5 -4.5t-28 -14.5t-25.5 -27.5t-15 -46.5q-2 -8 -1 -19t7 -15q4 -4 15 -1t17 3q33 0 55.5 -9.5t41.5 -25.5 q37 -35 37 -94q0 -45 -33 -80q-37 -39 -94 -39q-63 0 -101.5 41t-46.5 100q-4 21 -5 41.5z" />
<glyph unicode="&#x2019;" horiz-adv-x="280" d="M0 1329q0 45 33 80q37 39 94 39q61 0 100 -41t47 -100q4 -20 5.5 -41t-3.5 -41q-8 -55 -33.5 -100.5t-72.5 -75.5q-12 -8 -25.5 -15.5t-27.5 -11.5q-2 0 -13 -2l-20 -4q-4 0 -8 2q-8 4 -8 14v31q0 2 2 6q6 6 10 6q18 0 50 17.5t42 74.5q2 8 1 19.5t-7 15.5q-4 4 -15.5 1 t-17.5 -3q-35 0 -56.5 9.5t-39.5 25.5q-37 33 -37 94z" />
<glyph unicode="&#x201a;" horiz-adv-x="444" d="M82 129q0 45 33 80q37 39 92 39q61 0 101 -41t48 -101q4 -20 5 -40.5t-3 -40.5q-8 -55 -33.5 -100.5t-72.5 -76.5q-12 -8 -25.5 -15t-27.5 -11q-2 0 -13 -2l-20 -4q-4 0 -8 2q-8 4 -8 14v31q0 2 2 6q6 6 10 6q18 0 50 17.5t42 74.5q2 8 1 19.5t-7 15.5q-4 4 -15.5 1 t-17.5 -3q-35 0 -56.5 9t-39.5 26q-37 33 -37 94z" />
<glyph unicode="&#x201c;" horiz-adv-x="624" d="M1 1198.5q-1 20.5 3 40.5q8 55 33.5 100t73.5 76q12 8 25.5 15.5t27.5 11.5q2 0 12 2l21 4q4 0 8 -2q8 -4 8 -14v-31q0 -4 -2 -6q-4 -6 -10 -6q-10 0 -23.5 -4.5t-28 -14.5t-25.5 -27.5t-15 -46.5q-2 -8 -1 -19t7 -15q4 -4 15 -1t17 3q33 0 55.5 -9.5t41.5 -25.5 q37 -35 37 -94q0 -45 -33 -80q-37 -39 -94 -39q-63 0 -101.5 41t-46.5 100q-4 21 -5 41.5zM345 1198.5q-1 20.5 3 40.5q8 55 34 100t73 76q12 8 25.5 15.5t27.5 11.5q2 0 12 2l21 4q4 0 8 -2q8 -4 8 -14v-31q0 -4 -2 -6q-4 -6 -10 -6q-10 0 -23.5 -4.5t-28 -14.5 t-25.5 -27.5t-15 -46.5q-2 -8 -1 -19t7 -15q4 -4 15 -1t18 3q33 0 55 -9.5t41 -25.5q37 -35 37 -94q0 -45 -33 -80q-37 -39 -94 -39q-63 0 -101.5 41t-46.5 100q-4 21 -5 41.5z" />
<glyph unicode="&#x201d;" horiz-adv-x="624" d="M0 1329q0 45 33 80q37 39 94 39q61 0 100 -41t47 -100q4 -20 5.5 -41t-3.5 -41q-8 -55 -33.5 -100.5t-72.5 -75.5q-12 -8 -25.5 -15.5t-27.5 -11.5q-2 0 -13 -2l-20 -4q-4 0 -8 2q-8 4 -8 14v31q0 2 2 6q6 6 10 6q18 0 50 17.5t42 74.5q2 8 1 19.5t-7 15.5q-4 4 -15.5 1 t-17.5 -3q-35 0 -56.5 9.5t-39.5 25.5q-37 33 -37 94zM344 1329q0 45 33 80q37 39 94 39q61 0 100 -41t47 -100q4 -20 5.5 -41t-2.5 -41q-8 -55 -34 -100.5t-73 -75.5q-12 -8 -25.5 -15.5t-27.5 -11.5q-2 0 -12 -2l-21 -4q-4 0 -8 2q-8 4 -8 14v31q0 2 2 6q6 6 10 6 q18 0 50 17.5t42 74.5q2 8 1 19.5t-7 15.5q-4 4 -15.5 1t-17.5 -3q-35 0 -56.5 9.5t-39.5 25.5q-37 33 -37 94z" />
<glyph unicode="&#x201e;" horiz-adv-x="706" d="M41 129q0 45 33 80q37 39 92 39q61 0 101 -41t48 -101q4 -20 5.5 -40.5t-3.5 -40.5q-8 -55 -33.5 -100.5t-72.5 -76.5q-12 -8 -25.5 -15t-27.5 -11q-2 0 -13 -2l-20 -4q-4 0 -8 2q-8 4 -8 14v31q0 2 2 6q6 6 10 6q18 0 50 17.5t42 74.5q2 8 1 19.5t-7 15.5q-4 4 -15.5 1 t-17.5 -3q-35 0 -56.5 9t-39.5 26q-37 33 -37 94zM385 129q0 45 33 80q37 39 92 39q61 0 101 -41t48 -101q4 -20 5.5 -40.5t-2.5 -40.5q-8 -55 -34 -100.5t-73 -76.5q-12 -8 -25.5 -15t-27.5 -11q-2 0 -13 -2l-20 -4q-4 0 -8 2q-8 4 -8 14v31q0 2 2 6q6 6 10 6q18 0 50 17.5 t42 74.5q2 8 1 19.5t-7 15.5q-4 4 -15.5 1t-17.5 -3q-35 0 -56.5 9t-39.5 26q-37 33 -37 94z" />
<glyph unicode="&#x2022;" horiz-adv-x="507" d="M82 717q0 72 50 122t122 50t122 -50.5t50 -121.5q0 -72 -50 -122t-122 -50t-122 50t-50 122z" />
<glyph unicode="&#x2026;" horiz-adv-x="1024" d="M41 117q0 53 39 92t92 39t92 -39t39 -92t-39 -92t-92 -39t-92 39t-39 92zM381 117q0 53 39 92t92 39t92 -39t39 -92t-39 -92t-92 -39t-92 39t-39 92zM721 117q0 53 39 92t92 39t92 -39t39 -92t-39 -92t-92 -39t-92 39t-39 92z" />
<glyph unicode="&#x202f;" horiz-adv-x="380" />
<glyph unicode="&#x2039;" horiz-adv-x="655" d="M41 690v53q0 10 6 15l524 440q10 8 16.5 4t6.5 -16v-201q0 -29 -23 -47l-92 -78l-166 -137q-2 -2 -2 -6t2 -6l166 -138l92 -77q23 -18 23 -47v-201q0 -12 -6 -16.5t-17 4.5l-524 440q-4 2 -5 6t-1 8z" />
<glyph unicode="&#x203a;" horiz-adv-x="655" d="M61 248v201q0 29 23 47l258 215q2 2 2 6t-2 6l-258 215q-23 18 -23 47v201q0 12 6.5 16t16.5 -4l524 -440q6 -4 6 -15v-53q0 -4 -1 -8t-5 -6l-524 -440q-10 -8 -16.5 -4t-6.5 16z" />
<glyph unicode="&#x2044;" horiz-adv-x="598" d="M2 27l426 1380q8 27 37 27h110q12 0 18.5 -9.5t2.5 -19.5l-426 -1378q-8 -27 -37 -27h-110q-29 0 -21 27z" />
<glyph unicode="&#x205f;" horiz-adv-x="477" />
<glyph unicode="&#x20ac;" horiz-adv-x="825" d="M82 610v99q0 16 16 16h52v66h-52q-16 0 -16 16v98q0 16 16 17h52v268q0 53 20 100t55 82t82 55.5t101 20.5h77q53 0 100.5 -20.5t82 -55.5t55 -82t20.5 -100v-82q0 -29 -26 -37l-187 -29q-27 -8 -26 21v117q0 20 -14.5 34.5t-34.5 14.5h-17q-20 0 -34.5 -14.5 t-14.5 -34.5v-258h193q16 0 16 -17v-98q0 -16 -16 -16h-193v-66h193q16 0 16 -16v-99q0 -16 -16 -16h-193v-340q0 -20 14.5 -34.5t34.5 -14.5h17q20 0 34.5 14t14.5 35v205q0 29 26 20l187 -24q27 -8 26 -37v-174q0 -53 -20.5 -100.5t-55 -82t-81.5 -55t-101 -20.5h-77 q-53 0 -100.5 20.5t-82.5 55t-55 81.5t-20 101v350h-52q-16 0 -16 16z" />
<glyph unicode="&#x2122;" horiz-adv-x="550" d="M41 1366v59q0 8 8 9h170q8 0 8 -9v-59q0 -8 -8 -8h-47v-314q0 -8 -8 -8h-60q-8 0 -8 8v314h-47q-8 0 -8 8zM256 1044v381q0 8 8 9h58q6 0 10 -9l51 -204l51 204q0 8 10 9h58q8 0 8 -9v-381q0 -8 -10 -8h-62q-10 0 -10 8v177l-43 -168q-4 -6 -6 0l-43 168v-177q0 -8 -8 -8 h-64q-8 0 -8 8z" />
<glyph unicode="&#xe000;" horiz-adv-x="1230" d="M0 1230h1230v-1230h-1230v1230z" />
<glyph unicode="&#xfb01;" horiz-adv-x="1079" d="M747 29v1171q0 29 29 29h182q29 0 29 -29v-1171q0 -29 -29 -29h-182q-29 0 -29 29zM92 29v1171q0 29 29 29h444q29 0 29 -29v-182q0 -29 -29 -29h-233v-233h203q29 0 28 -29v-182q0 -29 -28 -29h-203v-487q0 -29 -29 -29h-182q-29 0 -29 29z" />
<glyph unicode="&#xfb02;" horiz-adv-x="1331" d="M757 29v1171q0 29 29 29h182q29 0 29 -29v-960h254q29 0 29 -29v-182q0 -29 -29 -29h-277h-4h-2h-182q-29 0 -29 29zM92 29v1171q0 29 29 29h444q29 0 29 -29v-182q0 -29 -29 -29h-233v-233h203q29 0 28 -29v-182q0 -29 -28 -29h-203v-487q0 -29 -29 -29h-182 q-29 0 -29 29z" />
<glyph unicode="&#xfb03;" horiz-adv-x="1734" d="M1403 29v1171q0 29 29 29h182q29 0 29 -29v-1171q0 -29 -29 -29h-182q-29 0 -29 29zM747 29v1171q0 29 29 29h444q29 0 29 -29v-182q0 -29 -29 -29h-233v-233h203q29 0 28 -29v-182q0 -29 -28 -29h-203v-487q0 -29 -29 -29h-182q-29 0 -29 29zM92 29v1171q0 29 29 29h444 q29 0 29 -29v-182q0 -29 -29 -29h-233v-233h203q29 0 28 -29v-182q0 -29 -28 -29h-203v-487q0 -29 -29 -29h-182q-29 0 -29 29z" />
<glyph unicode="&#xfb04;" horiz-adv-x="1986" d="M1413 29v1171q0 29 29 29h182q29 0 29 -29v-960h254q29 0 29 -29v-182q0 -29 -29 -29h-277h-4h-2h-182q-29 0 -29 29zM747 29v1171q0 29 29 29h444q29 0 29 -29v-182q0 -29 -29 -29h-233v-233h203q29 0 28 -29v-182q0 -29 -28 -29h-203v-487q0 -29 -29 -29h-182 q-29 0 -29 29zM92 29v1171q0 29 29 29h444q29 0 29 -29v-182q0 -29 -29 -29h-233v-233h203q29 0 28 -29v-182q0 -29 -28 -29h-203v-487q0 -29 -29 -29h-182q-29 0 -29 29z" />
</font>
</defs>
</svg>
