<?xml version="1.0" standalone="no"?>
<!DOCTYPE svg PUBLIC "-//W3C//DTD SVG 1.1//EN" "http://www.w3.org/Graphics/SVG/1.1/DTD/svg11.dtd" >
<svg xmlns="http://www.w3.org/2000/svg">
<metadata>Generated by IcoMoon</metadata>
<defs>
<font id="icomoon" horiz-adv-x="1024">
<font-face units-per-em="1024" ascent="960" descent="-64" />
<missing-glyph horiz-adv-x="1024" />
<glyph unicode="&#x20;" horiz-adv-x="512" d="" />
<glyph unicode="&#xe900;" glyph-name="add" d="M810.667 490.667h-256v256c0 25.6-17.067 42.667-42.667 42.667s-42.667-17.067-42.667-42.667v-256h-256c-25.6 0-42.667-17.067-42.667-42.667s17.067-42.667 42.667-42.667h256v-256c0-25.6 17.067-42.667 42.667-42.667s42.667 17.067 42.667 42.667v256h256c25.6 0 42.667 17.067 42.667 42.667s-17.067 42.667-42.667 42.667z" />
<glyph unicode="&#xe901;" glyph-name="add_f" d="M512 917.333c260.267 0 469.333-209.067 469.333-469.333s-209.067-469.333-469.333-469.333c-260.267 0-469.333 209.067-469.333 469.333s209.067 469.333 469.333 469.333zM682.667 490.667h-128v128c0 25.6-17.067 42.667-42.667 42.667s-42.667-17.067-42.667-42.667v-128h-128c-25.6 0-42.667-17.067-42.667-42.667s17.067-42.667 42.667-42.667h128v-128c0-25.6 17.067-42.667 42.667-42.667s42.667 17.067 42.667 42.667v128h128c25.6 0 42.667 17.067 42.667 42.667s-17.067 42.667-42.667 42.667z" />
<glyph unicode="&#xe902;" glyph-name="add_o" d="M512 64c-213.333 0-384 170.667-384 384s170.667 384 384 384c213.333 0 384-170.667 384-384s-170.667-384-384-384zM512 917.333c-260.267 0-469.333-209.067-469.333-469.333s209.067-469.333 469.333-469.333c260.267 0 469.333 209.067 469.333 469.333s-209.067 469.333-469.333 469.333zM682.667 490.667h-128v128c0 25.6-17.067 42.667-42.667 42.667s-42.667-17.067-42.667-42.667v-128h-128c-25.6 0-42.667-17.067-42.667-42.667s17.067-42.667 42.667-42.667h128v-128c0-25.6 17.067-42.667 42.667-42.667s42.667 17.067 42.667 42.667v128h128c25.6 0 42.667 17.067 42.667 42.667s-17.067 42.667-42.667 42.667z" />
<glyph unicode="&#xe903;" glyph-name="alert_f" d="M997.611 209.079c12.843-17.067 17.067-42.667 21.333-64 0-34.176-12.8-64-38.4-89.6-21.333-25.6-55.424-38.4-89.6-38.4h-725.333c-21.333 0-42.667 4.267-59.733 17.067-59.733 34.091-81.067 115.2-46.933 174.933l358.4 610.133c8.533 17.024 25.6 34.133 42.667 42.667 29.867 17.024 64 21.333 98.133 12.8s64-29.867 81.067-59.776l358.4-605.824zM512 618.667c-25.6 0-42.667-17.067-42.667-42.667v-170.667c0-25.643 17.067-42.667 42.667-42.667s42.667 17.024 42.667 42.667v170.667c0 25.6-17.067 42.667-42.667 42.667zM482.133 264.533c-8.533-8.491-12.8-17.024-12.8-29.824 0-12.843 4.267-21.333 12.8-29.867 8.533-8.576 17.067-12.8 29.867-12.8s21.333 4.224 29.867 12.8c8.533 8.533 12.8 21.333 12.8 29.867 0 8.491-4.267 21.333-12.8 29.824-17.067 17.067-42.667 17.067-59.733 0z" />
<glyph unicode="&#xe904;" glyph-name="alert_o" d="M920.811 115.213c-8.533-8.533-21.333-12.8-29.867-12.8h-725.333c-8.533 0-12.8 0-21.333 4.267-21.333 12.8-25.6 38.4-17.067 59.733l362.667 601.6c4.267 4.224 8.533 12.8 12.8 12.8 21.333 12.757 46.933 4.267 59.733-12.8l362.709-601.6c4.224-4.267 4.224-12.843 4.224-21.333 4.267-12.843-4.224-21.333-8.533-29.867zM997.611 209.079l-358.4 605.824c-17.067 29.909-46.933 51.243-81.067 59.776s-68.267 4.224-98.133-12.8c-17.067-8.533-34.133-25.643-42.667-42.667l-358.4-610.133c-34.133-59.733-12.8-140.843 46.933-174.933 17.067-12.8 38.4-17.067 59.733-17.067h725.333c34.176 0 68.267 12.8 89.6 38.4 25.6 25.6 38.4 55.424 38.4 89.6-4.267 21.333-8.491 46.933-21.333 64zM512 618.667c-25.6 0-42.667-17.067-42.667-42.667v-170.667c0-25.643 17.067-42.667 42.667-42.667s42.667 17.024 42.667 42.667v170.667c0 25.6-17.067 42.667-42.667 42.667zM482.133 264.533c-8.533-8.491-12.8-17.024-12.8-29.824 0-12.843 4.267-21.333 12.8-29.867 8.533-8.576 17.067-12.8 29.867-12.8s21.333 4.224 29.867 12.8c8.533 8.533 12.8 21.333 12.8 29.867 0 8.491-4.267 21.333-12.8 29.824-17.067 17.067-42.667 17.067-59.733 0z" />
<glyph unicode="&#xe905;" glyph-name="API" d="M853.333 149.333c0-25.6-17.067-42.667-42.667-42.667h-597.333c-25.6 0-42.667 17.067-42.667 42.667v597.333c0 25.6 17.067 42.667 42.667 42.667h597.333c25.6 0 42.667-17.067 42.667-42.667v-597.333zM810.667 874.667h-597.333c-72.533 0-128-55.467-128-128v-597.333c0-72.533 55.467-128 128-128h597.333c72.533 0 128 55.467 128 128v597.333c0 72.533-55.467 128-128 128zM798.165 478.165l-170.667 170.667c-16.683 16.683-43.648 16.683-60.331 0s-16.683-43.648 0-60.331l140.501-140.501-140.501-140.501c-16.683-16.683-16.683-43.648 0-60.331 8.32-8.32 19.243-12.501 30.165-12.501s21.845 4.181 30.165 12.501l170.667 170.667c16.683 16.683 16.683 43.648 0 60.331zM225.835 478.165l170.667 170.667c16.683 16.683 43.648 16.683 60.331 0s16.683-43.648 0-60.331l-140.501-140.501 140.501-140.501c16.683-16.683 16.683-43.648 0-60.331-8.32-8.32-19.243-12.501-30.165-12.501s-21.845 4.181-30.165 12.501l-170.667 170.667c-16.683 16.683-16.683 43.648 0 60.331z" />
<glyph unicode="&#xe906;" glyph-name="arrow-left" d="M183.467 477.899c-4.267-4.309-8.533-8.533-8.533-12.8-4.267-4.267-4.267-12.843-4.267-17.067 0-4.267 0-12.8 4.267-17.109 4.267-4.224 4.267-8.491 8.533-12.757l170.667-170.667c17.067-17.067 42.667-17.067 59.733 0s17.067 42.667 0 59.733l-98.091 98.133h494.891c25.6 0 42.667 17.067 42.667 42.667 0 25.557-17.067 42.667-42.667 42.667h-494.891l98.091 98.133c17.067 17.067 17.067 42.667 0 59.733-17.067 17.024-42.667 17.024-59.733 0l-170.667-170.667z" />
<glyph unicode="&#xe907;" glyph-name="arrow-right" d="M840.533 418.101c4.267 4.309 8.533 8.533 8.533 12.8 4.267 4.267 4.267 12.843 4.267 17.067 0 4.267 0 12.8-4.267 17.109-4.267 4.224-4.267 8.491-8.533 12.757l-170.667 170.667c-17.067 17.067-42.667 17.067-59.733 0s-17.067-42.667 0-59.733l98.091-98.133h-494.891c-25.6 0-42.667-17.067-42.667-42.667 0-25.557 17.067-42.667 42.667-42.667h494.891l-98.091-98.133c-17.067-17.067-17.067-42.667 0-59.733 17.067-17.024 42.667-17.024 59.733 0l170.667 170.667z" />
<glyph unicode="&#xe908;" glyph-name="arrow_f" d="M938.667 448c0-235.641-191.025-426.667-426.667-426.667s-426.667 191.025-426.667 426.667c0 235.641 191.025 426.667 426.667 426.667s426.667-191.025 426.667-426.667zM458.762 311.637c-10.286-10.637-10.286-27.88 0-38.516s26.962-10.637 37.248 0l150.497 155.621c10.286 10.637 10.286 27.88 0 38.516l-150.497 155.621c-10.286 10.637-26.962 10.637-37.248 0s-10.286-27.88 0-38.516l131.948-136.441-131.948-136.285z" />
<glyph unicode="&#xe909;" glyph-name="arrow_o" d="M458.762 311.637c-10.286-10.637-10.286-27.88 0-38.516s26.962-10.637 37.248 0l150.497 155.621c10.286 10.637 10.286 27.88 0 38.516l-150.497 155.621c-10.286 10.637-26.962 10.637-37.248 0s-10.286-27.88 0-38.516l131.948-136.441-131.948-136.285zM512 64c-213.333 0-384 170.667-384 384s170.667 384 384 384c213.333 0 384-170.667 384-384s-170.667-384-384-384zM42.667 448c0-260.267 209.067-469.333 469.333-469.333s469.333 209.067 469.333 469.333c0 260.267-209.067 469.333-469.333 469.333s-469.333-209.067-469.333-469.333z" />
<glyph unicode="&#xe90a;" glyph-name="attach" d="M924.768 478.208c-16.768 15.872-41.941 15.872-58.709 0l-386.005-364.757c-83.925-79.275-213.973-79.275-297.856 0-83.925 79.317-83.925 202.197 0 281.515l386.005 364.757c46.123 43.563 130.005 43.563 176.171 0 50.347-47.616 50.347-122.923 0-166.571l-385.963-364.715c-16.811-15.872-41.984-15.872-58.752 0-4.181 3.968-8.405 11.904-8.405 23.765 0 11.904 4.224 19.84 12.587 27.776l356.651 336.981c16.768 15.872 16.768 39.68 0 55.509-16.811 15.872-41.984 15.872-58.752 0l-356.651-336.981c-25.173-19.84-37.717-51.541-37.717-83.285 0-31.701 12.544-63.403 37.717-83.243 50.389-47.573 130.091-47.573 176.213 0l386.005 364.757c83.925 79.275 83.925 202.197 0 281.472-37.76 35.669-92.288 59.477-146.816 59.477-54.571 0-109.099-19.84-146.859-59.477l-386.005-364.715c-113.28-107.051-113.28-285.483 0-392.533 58.752-55.467 134.272-79.275 209.792-79.275s150.997 27.733 209.749 79.275l386.005 364.757c8.405 11.904 8.405 39.637-8.405 55.509z" />
<glyph unicode="&#xe90b;" glyph-name="beadcrumbs" d="M731.429 448l-365.714-365.714v731.429z" />
<glyph unicode="&#xe90c;" glyph-name="bedge" d="M273.067 789.333h477.867c150.811 0 273.067-122.256 273.067-273.067v-136.533c0-150.811-122.256-273.067-273.067-273.067h-477.867c-150.811 0-273.067 122.256-273.067 273.067v136.533c0 150.811 122.256 273.067 273.067 273.067z" />
<glyph unicode="&#xe90d;" glyph-name="browse" d="M279.704 400.593c-36.655 0-66.37 29.715-66.37 66.37s29.715 66.37 66.37 66.37c36.655 0 66.37-29.715 66.37-66.37s-29.715-66.37-66.37-66.37zM744.296 400.593c-36.655 0-66.37 29.715-66.37 66.37s29.715 66.37 66.37 66.37c36.655 0 66.37-29.715 66.37-66.37s-29.715-66.37-66.37-66.37zM512 400.593c-36.655 0-66.37 29.715-66.37 66.37s29.715 66.37 66.37 66.37c36.655 0 66.37-29.715 66.37-66.37s-29.715-66.37-66.37-66.37z" />
<glyph unicode="&#xe90e;" glyph-name="calendar" d="M810.667 64h-597.333c-25.6 0-42.667 17.067-42.667 42.667v384h682.667v-384c0-25.6-17.067-42.667-42.667-42.667zM213.333 746.667h85.333v-42.667c0-25.6 17.067-42.667 42.667-42.667s42.667 17.067 42.667 42.667v42.667h256v-42.667c0-25.6 17.067-42.667 42.667-42.667s42.667 17.067 42.667 42.667v42.667h85.333c25.6 0 42.667-17.067 42.667-42.667v-128h-682.667v128c0 25.6 17.067 42.667 42.667 42.667zM810.667 832h-85.333v42.667c0 25.6-17.067 42.667-42.667 42.667s-42.667-17.067-42.667-42.667v-42.667h-256v42.667c0 25.6-17.067 42.667-42.667 42.667s-42.667-17.067-42.667-42.667v-42.667h-85.333c-72.533 0-128-55.467-128-128v-597.333c0-72.533 55.467-128 128-128h597.333c72.533 0 128 55.467 128 128v597.333c0 72.533-55.467 128-128 128z" />
<glyph unicode="&#xe90f;" glyph-name="camera" d="M938.667 149.333c0-25.6-17.067-42.667-42.667-42.667h-768c-25.6 0-42.667 17.067-42.667 42.667v469.333c0 25.6 17.067 42.667 42.667 42.667h170.667c12.8 0 25.6 8.533 34.133 17.067l72.533 110.933h209.067l72.533-110.933c12.8-8.533 25.6-17.067 38.4-17.067h170.667c25.6 0 42.667-17.067 42.667-42.667v-469.333zM896 746.667h-149.333l-72.533 110.933c-8.533 8.533-21.333 17.067-34.133 17.067h-256c-12.8 0-25.6-8.533-34.133-17.067l-72.533-110.933h-149.333c-72.533 0-128-55.467-128-128v-469.333c0-72.533 55.467-128 128-128h768c72.533 0 128 55.467 128 128v469.333c0 72.533-55.467 128-128 128zM512 234.667c-72.533 0-128 55.467-128 128s55.467 128 128 128c72.533 0 128-55.467 128-128s-55.467-128-128-128zM512 576c-119.467 0-213.333-93.867-213.333-213.333s93.867-213.333 213.333-213.333c119.467 0 213.333 93.867 213.333 213.333s-93.867 213.333-213.333 213.333z" />
<glyph unicode="&#xe910;" glyph-name="chevron" d="M482.125 290.125c8.533-8.533 21.333-12.8 29.867-12.8s21.333 4.267 29.867 12.8l213.333 213.333c17.067 17.067 17.067 42.667 0 59.733s-42.667 17.067-59.733 0l-183.467-183.467-183.467 183.467c-17.067 17.067-42.667 17.067-59.733 0s-17.067-42.667 0-59.733l213.333-213.333z" />
<glyph unicode="&#xe911;" glyph-name="close" d="M580.25 448l258.475 258.475c19.499 19.499 19.499 48.725 0 68.224s-48.768 19.499-68.267 0l-258.475-258.432-258.432 258.432c-19.499 19.499-48.768 19.499-68.267 0s-19.499-48.725 0-68.224l258.475-258.475-258.475-258.475c-19.499-19.499-19.499-48.725 0-68.224 9.771-9.771 19.499-14.635 34.133-14.635s24.363 4.864 34.133 14.635l258.432 258.432 258.475-258.432c9.771-9.771 24.363-14.635 34.133-14.635 9.728 0 24.363 4.864 34.133 14.635 19.499 19.499 19.499 48.725 0 68.224l-258.475 258.475z" />
<glyph unicode="&#xe912;" glyph-name="commit" d="M896.086 106.965c-338.304 1.152-340.693 454.101-340.651 473.557v106.88l99.157-97.323c8.32-8.192 19.072-12.245 29.867-12.245 11.136 0 22.187 4.309 30.592 12.843 16.469 16.896 16.213 44.032-0.683 60.544l-171.819 168.576c-0.341 0.299-0.811 0.384-1.152 0.725-3.541 3.285-7.509 6.187-12.203 8.149-0.213 0.085-0.341 0.085-0.512 0.128-0.725 0.299-1.451 0.299-2.133 0.555-4.139 1.408-8.277 2.176-12.501 2.304-0.768 0-1.451 0.256-2.219 0.256-0.171 0-0.341 0.085-0.512 0.085-1.067 0-1.963-0.555-3.029-0.597-2.603-0.299-5.12-0.811-7.68-1.579-8.96-2.347-16.512-7.253-22.144-14.293l-165.803-163.456c-16.811-16.597-17.067-43.691-0.512-60.587 16.555-16.811 43.605-17.024 60.416-0.469l96 94.677v-105.387c0.043-19.243-2.347-472.192-340.651-473.344-23.595-0.085-42.667-19.328-42.581-42.965 0.085-23.595 19.2-42.667 42.752-42.667h0.171c107.051 0.384 196.949 36.608 267.307 107.648 56.832 57.429 93.056 130.347 116.437 200.789 23.424-70.443 59.648-143.36 116.48-200.789 70.315-71.040 160.213-107.264 267.264-107.648h0.171c23.552 0 42.667 19.072 42.752 42.667 0.085 23.637-18.987 42.88-42.581 42.965z" />
<glyph unicode="&#xe913;" glyph-name="composition" d="M810.667 104.533c-23.552 0-42.667 19.115-42.667 42.667s19.115 42.667 42.667 42.667c23.552 0 42.667-19.115 42.667-42.667s-19.115-42.667-42.667-42.667zM213.333 104.533c-23.552 0-42.667 19.115-42.667 42.667s19.115 42.667 42.667 42.667c23.552 0 42.667-19.115 42.667-42.667s-19.115-42.667-42.667-42.667zM213.333 787.2c23.552 0 42.667-19.115 42.667-42.667s-19.115-42.667-42.667-42.667c-23.552 0-42.667 19.115-42.667 42.667s19.115 42.667 42.667 42.667zM512 488.533c23.552 0 42.667-19.115 42.667-42.667s-19.115-42.667-42.667-42.667c-23.552 0-42.667 19.115-42.667 42.667s19.115 42.667 42.667 42.667zM810.667 275.2c-55.68 0-102.528-35.755-120.149-85.333h-357.035c-12.843 36.224-41.259 64.64-77.483 77.483v135.851h135.851c17.621-49.579 64.469-85.333 120.149-85.333 70.699 0 128 57.301 128 128s-57.301 128-128 128c-55.68 0-102.528-35.755-120.149-85.333h-135.851v135.851c49.579 17.621 85.333 64.469 85.333 120.149 0 70.699-57.301 128-128 128s-128-57.301-128-128c0-55.68 35.755-102.528 85.333-120.149v-357.035c-49.579-17.621-85.333-64.469-85.333-120.149 0-70.699 57.301-128 128-128 55.68 0 102.528 35.755 120.149 85.333h357.035c17.621-49.579 64.469-85.333 120.149-85.333 70.699 0 128 57.301 128 128s-57.301 128-128 128z" />
<glyph unicode="&#xe914;" glyph-name="deployment_Artifacts" d="M853.333 149.333c0-25.6-17.067-42.667-42.667-42.667h-597.333c-25.6 0-42.667 17.067-42.667 42.667v597.333c0 25.6 17.067 42.667 42.667 42.667h597.333c25.6 0 42.667-17.067 42.667-42.667v-597.333zM810.667 874.667h-597.333c-72.533 0-128-55.467-128-128v-597.333c0-72.533 55.467-128 128-128h597.333c72.533 0 128 55.467 128 128v597.333c0 72.533-55.467 128-128 128zM298.667 277.333c0 23.552 19.115 42.667 42.667 42.667s42.667-19.115 42.667-42.667c0-23.552-19.115-42.667-42.667-42.667s-42.667 19.115-42.667 42.667zM512 661.333c23.552 0 42.667-19.115 42.667-42.667s-19.115-42.667-42.667-42.667c-23.552 0-42.667 19.115-42.667 42.667s19.115 42.667 42.667 42.667zM725.333 277.333c0-23.552-19.115-42.667-42.667-42.667s-42.667 19.115-42.667 42.667c0 23.552 19.115 42.667 42.667 42.667s42.667-19.115 42.667-42.667zM405.888 387.285l66.176 110.379c12.629-4.224 25.899-6.997 39.936-6.997 6.784 0 13.312 0.981 19.84 2.005l81.152-108.16c-23.339-15.232-41.003-37.845-50.475-64.512h-101.035c-10.112 28.544-29.909 52.181-55.595 67.285zM461.483 234.667h101.035c17.621-49.579 64.469-85.333 120.149-85.333 70.699 0 128 57.301 128 128 0 62.805-45.312 114.773-104.96 125.653l-98.304 131.115c20.053 22.571 32.597 51.968 32.597 84.565 0 70.699-57.301 128-128 128s-128-57.301-128-128c0-25.216 7.552-48.597 20.139-68.395l-88.533-147.541c-58.368-11.904-102.272-63.531-102.272-125.397 0-70.699 57.301-128 128-128 55.68 0 102.528 35.755 120.149 85.333z" />
<glyph unicode="&#xe915;" glyph-name="download" d="M896 277.333c25.6 0 42.667-17.067 42.667-42.667v-128c0-72.533-55.467-128-128-128h-597.333c-72.533 0-128 55.467-128 128v128c0 25.6 17.067 42.667 42.667 42.667s42.667-17.067 42.667-42.667v-128c0-25.6 17.067-42.667 42.667-42.667h597.333c25.6 0 42.667 17.067 42.667 42.667v128c0 25.6 17.067 42.667 42.667 42.667zM482.101 247.467l-170.667 170.667c-17.024 17.067-17.024 42.667 0 59.733 17.067 17.067 42.667 17.067 59.733 0l98.133-98.091v494.891c0 25.6 17.109 42.667 42.667 42.667 25.6 0 42.667-17.067 42.667-42.667v-494.891l98.133 98.091c17.067 17.067 42.667 17.067 59.733 0s17.067-42.667 0-59.733l-170.667-170.667c-4.267-4.267-8.533-4.267-12.757-8.533-4.309-4.267-12.843-4.267-17.109-4.267-4.224 0-12.8 0-17.067 4.267-4.267 0-8.491 4.267-12.8 8.533z" />
<glyph unicode="&#xe916;" glyph-name="duplicate" d="M128 106.667c0-25.6 17.067-42.667 42.667-42.667h384c25.6 0 42.667 17.067 42.667 42.667v384c0 25.6-17.067 42.667-42.667 42.667h-384c-25.6 0-42.667-17.067-42.667-42.667v-384zM170.667 618.667h384c72.533 0 128-55.467 128-128v-384c0-72.533-55.467-128-128-128h-384c-72.533 0-128 55.467-128 128v384c0 72.533 55.467 128 128 128zM810.667 362.667h42.667c25.6 0 42.667 17.067 42.667 42.667v384c0 25.6-17.067 42.667-42.667 42.667h-384c-25.6 0-42.667-17.067-42.667-42.667v-42.667c0-25.6-17.067-42.667-42.667-42.667s-42.667 17.067-42.667 42.667v42.667c0 72.533 55.467 128 128 128h384c72.533 0 128-55.467 128-128v-384c0-72.533-55.467-128-128-128h-42.667c-25.6 0-42.667 17.067-42.667 42.667s17.067 42.667 42.667 42.667z" />
<glyph unicode="&#xe917;" glyph-name="edit" d="M170.667 388.271v-110.933h110.933l426.667 426.667-110.933 110.933-426.667-426.667zM128 192.004c-25.6 0-42.667 17.067-42.667 42.667v170.667c0 12.8 4.267 21.333 12.8 29.867l469.333 469.333c17.067 17.067 42.667 17.067 59.733 0l170.667-170.667c17.067-17.067 17.067-42.667 0-59.733l-469.333-469.333c-8.533-8.533-17.067-12.8-29.867-12.8h-170.667zM896 64c25.6 0 42.667-17.067 42.667-42.667s-17.067-42.667-42.667-42.667h-768c-25.6 0-42.667 17.067-42.667 42.667s17.067 42.667 42.667 42.667h768z" />
<glyph unicode="&#xe918;" glyph-name="expand" d="M934.426 849.067c4.267-4.309 4.267-12.843 4.267-17.067v-256c0-25.6-17.109-42.667-42.667-42.667-25.6 0-42.667 17.067-42.667 42.667v153.557l-226.133-226.133c-8.533-8.533-21.333-12.757-29.867-12.757-8.576 0-21.333 4.224-29.909 12.757-17.024 17.109-17.024 42.667 0 59.776l226.133 226.133h-153.557c-25.6 0-42.667 17.067-42.667 42.667 0 25.557 17.067 42.667 42.667 42.667h256c4.224 0 12.757 0 17.067-4.267 8.491-4.309 17.024-12.843 21.333-21.333zM396.8 392.525c17.067 17.024 42.667 17.024 59.733 0 17.067-17.067 17.067-42.667 0-59.733l-226.091-226.133h153.557c25.6 0 42.667-17.109 42.667-42.667 0-25.6-17.067-42.667-42.667-42.667h-256c-4.224 0-12.8 0-17.067 4.224-8.491 4.309-17.067 12.843-21.333 21.333-4.267 4.309-4.267 12.843-4.267 17.109v256c0 25.557 17.109 42.667 42.667 42.667 25.6 0 42.667-17.109 42.667-42.667v-153.6l226.133 226.133zM913.092 25.566c-4.309-4.267-12.843-4.267-17.067-4.267h-256c-25.6 0-42.667 17.109-42.667 42.667 0 25.6 17.067 42.667 42.667 42.667h153.557l-226.133 226.133c-8.533 8.533-12.757 21.333-12.757 29.867 0 8.576 4.224 21.333 12.757 29.909 17.109 17.024 42.667 17.024 59.776 0l226.133-226.133v153.557c0 25.6 17.067 42.667 42.667 42.667 25.557 0 42.667-17.067 42.667-42.667v-256c0-4.224 0-12.757-4.267-17.067-4.309-8.491-12.843-17.024-21.333-21.333zM456.55 563.191c17.024-17.067 17.024-42.667 0-59.733-17.067-17.067-42.667-17.067-59.733 0l-226.133 226.091v-153.557c0-25.6-17.109-42.667-42.667-42.667-25.6 0-42.667 17.067-42.667 42.667v256c0 4.224 0 12.8 4.224 17.067 4.309 8.491 12.843 17.067 21.333 21.333 4.309 4.267 12.843 4.267 17.109 4.267h256c25.557 0 42.667-17.109 42.667-42.667 0-25.6-17.109-42.667-42.667-42.667h-153.6l226.133-226.133z" />
<glyph unicode="&#xe919;" glyph-name="fail" d="M580.25 448l258.475 258.475c19.499 19.499 19.499 48.725 0 68.224s-48.768 19.499-68.267 0l-258.475-258.432-258.432 258.432c-19.499 19.499-48.768 19.499-68.267 0s-19.499-48.725 0-68.224l258.475-258.475-258.475-258.475c-19.499-19.499-19.499-48.725 0-68.224 9.771-9.771 19.499-14.635 34.133-14.635s24.363 4.864 34.133 14.635l258.432 258.432 258.475-258.432c9.771-9.771 24.363-14.635 34.133-14.635 9.728 0 24.363 4.864 34.133 14.635 19.499 19.499 19.499 48.725 0 68.224l-258.475 258.475z" />
<glyph unicode="&#xe91a;" glyph-name="file_managment" d="M853.333 375.462c25.6 0 42.667-17.024 42.667-42.667v-226.133c0-72.533-55.467-128-128-128h-597.333c-72.533 0-128 55.467-128 128v597.333c0 72.533 55.467 128 128 128h226.133c25.6 0 42.667-17.067 42.667-42.667 0-25.557-17.067-42.667-42.667-42.667h-226.133c-25.6 0-42.667-17.067-42.667-42.667v-597.333c0-25.557 17.067-42.667 42.667-42.667h597.333c25.6 0 42.667 17.109 42.667 42.667v226.133c0 25.643 17.067 42.667 42.667 42.667zM494.916 320.004h-110.933v110.933l384 384 110.933-110.933-384-384zM968.559 733.871l-170.667 170.667c-17.109 17.067-42.667 17.067-59.776 0l-426.667-426.667c-8.533-8.533-12.8-17.067-12.8-29.867v-170.667c0-25.6 17.109-42.667 42.667-42.667h170.667c12.8 0 21.333 4.267 29.909 12.8l426.667 426.667c17.024 17.067 17.024 42.667 0 59.733z" />
<glyph unicode="&#xe91b;" glyph-name="filter" d="M563.595 456.533c-4.309-8.533-8.533-17.067-8.533-29.867v-294.443l-85.333 42.667v251.776c0 8.533-4.267 21.333-8.533 25.557l-281.6 337.109h669.867l-285.867-332.8zM977.461 849.067c-8.533 17.067-21.333 25.6-38.4 25.6h-853.333c-17.109 0-29.867-8.533-38.443-25.6-8.491-12.843-4.224-29.867 4.309-42.667l332.8-392.533v-264.533c0-17.109 8.533-29.867 25.557-38.443l170.667-85.333c4.309-4.224 8.576-4.224 17.109-4.224s17.067 0 21.333 4.224c12.8 8.576 21.333 21.333 21.333 38.443v349.867l332.8 392.533c8.533 12.8 12.757 29.824 4.267 42.667z" />
<glyph unicode="&#xe91c;" glyph-name="filterDown" d="M482.101 162.133c4.309-4.267 8.533-8.533 12.8-8.533 4.267-4.267 12.843-4.267 17.067-4.267 4.267 0 12.8 0 17.109 4.267 4.224 4.267 8.491 4.267 12.757 8.533l170.667 170.667c17.067 17.067 17.067 42.667 0 59.733s-42.667 17.067-59.733 0l-98.133-98.091v494.891c0 25.6-17.067 42.667-42.667 42.667-25.557 0-42.667-17.067-42.667-42.667v-494.891l-98.133 98.091c-17.067 17.067-42.667 17.067-59.733 0-17.024-17.067-17.024-42.667 0-59.733l170.667-170.667z" />
<glyph unicode="&#xe91d;" glyph-name="filterUp" d="M482.101 819.2c4.309 4.267 8.533 8.533 12.8 8.533 4.267 4.267 12.843 4.267 17.067 4.267 4.267 0 12.8 0 17.109-4.267 4.224-4.267 8.491-4.267 12.757-8.533l170.667-170.667c17.067-17.067 17.067-42.667 0-59.733s-42.667-17.067-59.733 0l-98.133 98.091v-494.891c0-25.6-17.067-42.667-42.667-42.667-25.557 0-42.667 17.067-42.667 42.667v494.891l-98.133-98.091c-17.067-17.067-42.667-17.067-59.733 0-17.024 17.067-17.024 42.667 0 59.733l170.667 170.667z" />
<glyph unicode="&#xe91e;" glyph-name="info_f" d="M512 917.333c260.267 0 469.333-209.067 469.333-469.333 0-260.309-209.067-469.333-469.333-469.333s-469.333 209.024-469.333 469.333c0 260.267 209.067 469.333 469.333 469.333zM512 490.667c-25.6 0-42.667-17.067-42.667-42.667v-170.667c0-25.643 17.067-42.667 42.667-42.667s42.667 17.024 42.667 42.667v170.667c0 25.6-17.067 42.667-42.667 42.667zM482.125 648.542c-8.533-8.533-12.8-17.067-12.8-29.867s4.267-21.333 12.8-29.867c8.533-8.576 17.067-12.8 29.867-12.8s21.333 4.224 29.867 12.8c8.576 8.533 12.8 17.067 12.8 29.867s-4.224 21.333-12.8 29.867c-17.067 17.024-42.667 17.024-59.733 0z" />
<glyph unicode="&#xe91f;" glyph-name="info_o" d="M512 64c-213.333 0-384 170.667-384 384s170.667 384 384 384c213.333 0 384-170.667 384-384s-170.667-384-384-384zM512 917.333c-260.267 0-469.333-209.067-469.333-469.333 0-260.309 209.067-469.333 469.333-469.333s469.333 209.024 469.333 469.333c0 260.267-209.067 469.333-469.333 469.333zM512 490.667c-25.6 0-42.667-17.067-42.667-42.667v-170.667c0-25.643 17.067-42.667 42.667-42.667s42.667 17.024 42.667 42.667v170.667c0 25.6-17.067 42.667-42.667 42.667zM482.125 648.542c-8.533-8.533-12.8-17.067-12.8-29.867s4.267-21.333 12.8-29.867c8.533-8.576 17.067-12.8 29.867-12.8s21.333 4.224 29.867 12.8c8.576 8.533 12.8 17.067 12.8 29.867s-4.224 21.333-12.8 29.867c-17.067 17.024-42.667 17.024-59.733 0z" />
<glyph unicode="&#xe920;" glyph-name="info_tabs" d="M512 490.667c25.6 0 42.667-17.067 42.667-42.667v-170.667c0-25.643-17.067-42.667-42.667-42.667s-42.667 17.024-42.667 42.667v170.667c0 25.6 17.067 42.667 42.667 42.667zM482.133 648.565c17.067 17.024 42.667 17.024 59.733 0 8.576-8.533 12.8-17.067 12.8-29.867s-4.224-21.333-12.8-29.867c-8.533-8.576-17.067-12.8-29.867-12.8s-21.333 4.224-29.867 12.8c-8.533 8.533-12.8 17.067-12.8 29.867s4.267 21.333 12.8 29.867zM853.333 149.333c0-25.6-17.067-42.667-42.667-42.667h-597.333c-25.6 0-42.667 17.067-42.667 42.667v597.333c0 25.6 17.067 42.667 42.667 42.667h597.333c25.6 0 42.667-17.067 42.667-42.667v-597.333zM810.667 874.667h-597.333c-72.533 0-128-55.467-128-128v-597.333c0-72.533 55.467-128 128-128h597.333c72.533 0 128 55.467 128 128v597.333c0 72.533-55.467 128-128 128z" />
<glyph unicode="&#xe921;" glyph-name="information_artifacts" d="M512 490.667c25.6 0 42.667-17.067 42.667-42.667v-170.667c0-25.643-17.067-42.667-42.667-42.667s-42.667 17.024-42.667 42.667v170.667c0 25.6 17.067 42.667 42.667 42.667zM482.133 648.565c17.067 17.024 42.667 17.024 59.733 0 8.576-8.533 12.8-17.067 12.8-29.867s-4.224-21.333-12.8-29.867c-8.533-8.576-17.067-12.8-29.867-12.8s-21.333 4.224-29.867 12.8c-8.533 8.533-12.8 17.067-12.8 29.867s4.267 21.333 12.8 29.867zM853.333 149.333c0-25.6-17.067-42.667-42.667-42.667h-597.333c-25.6 0-42.667 17.067-42.667 42.667v597.333c0 25.6 17.067 42.667 42.667 42.667h597.333c25.6 0 42.667-17.067 42.667-42.667v-597.333zM810.667 874.667h-597.333c-72.533 0-128-55.467-128-128v-597.333c0-72.533 55.467-128 128-128h597.333c72.533 0 128 55.467 128 128v597.333c0 72.533-55.467 128-128 128z" />
<glyph unicode="&#xe922;" glyph-name="inputs" d="M853.333 147.2c0-25.6-17.067-42.667-42.667-42.667h-597.333c-25.6 0-42.667 17.067-42.667 42.667v597.333c0 25.6 17.067 42.667 42.667 42.667h597.333c25.6 0 42.667-17.067 42.667-42.667v-597.333zM810.667 872.533h-597.333c-72.533 0-128-55.467-128-128v-597.333c0-72.533 55.467-128 128-128h597.333c72.533 0 128 55.467 128 128v597.333c0 72.533-55.467 128-128 128zM725.333 659.2h-426.667c-23.467 0-42.667-19.2-42.667-42.667s19.2-42.667 42.667-42.667h426.667c23.467 0 42.667 19.2 42.667 42.667s-19.2 42.667-42.667 42.667zM725.333 488.533h-426.667c-23.467 0-42.667-19.2-42.667-42.667s19.2-42.667 42.667-42.667h426.667c23.467 0 42.667 19.2 42.667 42.667s-19.2 42.667-42.667 42.667z" />
<glyph unicode="&#xe923;" glyph-name="locked" d="M341.333 661.333c0 93.867 76.8 170.667 170.667 170.667s170.667-76.8 170.667-170.667v-128h-341.333v128zM810.667 533.333h-42.667v128c0 140.8-115.2 256-256 256s-256-115.2-256-256v-128h-42.667c-72.533 0-128-55.467-128-128v-298.667c0-72.533 55.467-128 128-128h597.333c72.533 0 128 55.467 128 128v298.667c0 72.533-55.467 128-128 128z" />
<glyph unicode="&#xe924;" glyph-name="Menu" d="M445.649 699.24c0 36.655 29.715 66.37 66.37 66.37s66.37-29.715 66.37-66.37c0-36.655-29.715-66.37-66.37-66.37s-66.37 29.715-66.37 66.37zM445.649 234.648c0 36.655 29.715 66.37 66.37 66.37s66.37-29.715 66.37-66.37c0-36.655-29.715-66.37-66.37-66.37s-66.37 29.715-66.37 66.37zM445.649 466.944c0 36.655 29.715 66.37 66.37 66.37s66.37-29.715 66.37-66.37c0-36.655-29.715-66.37-66.37-66.37s-66.37 29.715-66.37 66.37z" />
<glyph unicode="&#xe925;" glyph-name="notifications" d="M234.667 277.333h554.667c-12.8 25.6-21.333 55.467-21.333 85.333v213.333c0 140.8-115.2 256-256 256s-256-115.2-256-256v-213.333c0-29.867-8.533-59.733-21.333-85.333zM938.667 277.333c25.6 0 42.667-17.067 42.667-42.667s-17.067-42.667-42.667-42.667h-853.333c-25.6 0-42.667 17.067-42.667 42.667s17.067 42.667 42.667 42.667c46.933 0 85.333 38.4 85.333 85.333v213.333c0 187.733 153.6 341.333 341.333 341.333s341.333-153.6 341.333-341.333v-213.333c0-46.933 38.4-85.333 85.333-85.333zM644.131 100.648c21.333-12.8 29.867-38.4 8.533-59.733-25.6-42.667-68.267-64-110.933-64-21.333 0-42.667 4.267-64 17.067s-34.133 25.6-46.933 46.933c-8.533 21.333-4.309 46.933 17.024 59.733 21.333 8.533 46.976 4.267 59.776-17.067 4.224-8.533 8.533-12.8 17.067-17.067 21.333-8.533 46.933-4.267 59.733 17.067 12.757 21.333 38.4 29.867 59.733 17.067z" />
<glyph unicode="&#xe926;" glyph-name="permissions" d="M554.667 362.667h-341.333c-119.467 0-213.333-93.867-213.333-213.333v-85.333c0-25.6 17.067-42.667 42.667-42.667s42.667 17.067 42.667 42.667v85.333c0 72.533 55.467 128 128 128h341.333c72.533 0 128-55.467 128-128v-85.333c0-25.6 17.067-42.667 42.667-42.667s42.667 17.067 42.667 42.667v85.333c0 119.467-93.867 213.333-213.333 213.333zM384 789.333c72.533 0 128-55.467 128-128s-55.467-128-128-128c-72.533 0-128 55.467-128 128s55.467 128 128 128zM384 448c119.467 0 213.333 93.867 213.333 213.333s-93.867 213.333-213.333 213.333c-119.467 0-213.333-93.867-213.333-213.333s93.867-213.333 213.333-213.333zM862.684 361.849c-21.333 4.267-46.976-8.533-51.2-29.867-4.267-21.333 8.533-46.933 29.867-51.2 55.467-12.8 93.867-64 93.867-123.733v-85.333c0-25.6 17.067-42.667 42.667-42.667s42.667 17.067 42.667 42.667v85.333c4.267 98.133-59.733 183.467-157.867 204.8zM693.444 872.034c-21.333 8.533-42.667-4.267-51.2-29.867-4.267-21.333 8.533-46.933 29.867-51.2 68.267-17.067 110.933-85.333 93.867-157.867-12.843-46.933-46.933-81.067-93.867-93.867-21.333-4.267-38.4-29.867-29.867-51.2 4.224-21.333 21.333-34.133 42.667-34.133h8.533c76.8 21.333 136.533 76.8 153.6 153.6 29.867 119.467-38.4 238.933-153.6 264.533z" />
<glyph unicode="&#xe927;" glyph-name="profile" d="M682.667 362.667h-341.333c-119.467 0-213.333-93.867-213.333-213.333v-85.333c0-25.6 17.067-42.667 42.667-42.667s42.667 17.067 42.667 42.667v85.333c0 72.533 55.467 128 128 128h341.333c72.533 0 128-55.467 128-128v-85.333c0-25.6 17.067-42.667 42.667-42.667s42.667 17.067 42.667 42.667v85.333c0 119.467-93.867 213.333-213.333 213.333zM512 789.333c72.533 0 128-55.467 128-128s-55.467-128-128-128c-72.533 0-128 55.467-128 128s55.467 128 128 128zM512 448c119.467 0 213.333 93.867 213.333 213.333s-93.867 213.333-213.333 213.333c-119.467 0-213.333-93.867-213.333-213.333s93.867-213.333 213.333-213.333z" />
<glyph unicode="&#xe928;" glyph-name="properties" d="M512 362.658c-46.933 0-85.333 38.4-85.333 85.333 0 46.976 38.4 85.333 85.333 85.333s85.333-38.357 85.333-85.333c0-46.933-38.4-85.333-85.333-85.333zM512 618.658c-93.867 0-170.667-76.8-170.667-170.667s76.8-170.667 170.667-170.667c93.867 0 170.667 76.8 170.667 170.667s-76.8 170.667-170.667 170.667zM814.916 209.075c8.533-8.533 12.843-17.067 12.843-29.867s-4.309-21.333-12.843-29.867c-8.491-8.576-17.024-12.8-29.824-12.8-12.843 0-21.333 4.224-34.176 17.067-34.133 34.133-81.024 42.667-123.691 21.333-42.667-17.067-68.309-59.733-68.309-102.4v-8.533c0-25.6-17.024-42.667-42.667-42.667-25.6 0-42.667 17.067-42.667 42.667v4.267c0 46.933-29.824 85.333-72.491 102.4-12.843 8.533-29.867 8.533-46.976 8.533-29.867 0-59.691-12.8-81.024-34.133-17.109-17.067-38.443-17.067-55.509-4.309l-8.491 17.109h-4.309c-4.224 4.224-4.224 12.8-4.224 17.067 0 12.8 4.224 21.333 17.024 34.133 34.176 34.133 42.667 81.024 21.333 123.691-17.024 42.667-59.691 68.309-102.357 68.309h-8.576c-25.557 0-42.667 17.024-42.667 42.667 0 25.6 17.109 42.667 42.667 42.667h4.267c46.976 0 85.333 29.867 102.4 72.533 17.109 42.667 8.576 89.6-25.557 128-17.109 17.067-17.109 42.667 0 59.733 17.024 17.067 42.667 17.067 64-4.267 29.824-29.867 76.8-38.4 115.157-25.643l12.843 4.309c42.667 17.024 68.224 59.691 68.224 102.357v8.576c0 25.6 17.109 42.667 42.667 42.667 25.6 0 42.667-17.067 42.667-46.933 0-46.976 25.6-85.333 68.267-102.4s89.643-8.576 128 25.6c8.533 8.491 17.067 12.8 29.867 12.8s21.333-4.309 29.867-12.8c17.109-17.067 17.109-42.667-4.224-64-29.867-29.867-38.443-76.843-25.643-115.2l4.309-12.8c17.024-42.667 59.691-68.267 102.357-68.267h8.533c25.6 0 42.667-17.067 42.667-42.667s-17.067-42.667-46.891-42.667c-46.976 0-85.333-25.6-102.443-68.267-21.333-42.667-8.533-89.643 25.6-128zM866.116 302.942c4.309 8.491 12.8 17.067 29.867 17.067 72.576 0 128 55.424 128 128 0 72.533-55.424 128-128 128h-8.533c-8.533 0-17.024 4.267-21.333 12.757l-4.224 8.576c-4.309 8.533-4.309 21.333 8.533 34.091 46.891 46.976 51.157 115.243 12.8 166.443v12.8l-17.109 8.533c-21.333 21.333-51.2 34.133-85.333 34.133s-68.224-12.8-93.867-38.4c-8.491-8.533-21.333-8.533-29.824-4.267-8.533-4.267-17.109 8.533-17.109 21.333 0 72.533-55.424 128-128 128-72.533 0-128-55.467-128-128v-8.576c0-8.491-4.224-17.024-12.757-21.333l-8.576-4.224c-8.533-4.267-21.333 0-34.091 8.533-51.243 51.2-132.309 51.2-179.243 0-51.2-51.2-51.2-132.309 4.267-183.467 8.533-8.533 8.533-21.333 4.309-34.176-4.309-8.491-17.109-17.024-29.909-17.024-72.533 0-128-55.467-128-128s55.467-128 128-128h8.576c12.757 0 21.333-8.533 25.557-17.067 4.309-8.576 4.309-21.333-8.533-34.133-25.6-25.6-38.357-55.467-38.357-89.6 0-29.867 12.757-59.733 34.091-85.333l4.267-4.267 12.843-12.8c51.157-38.443 119.467-34.133 170.667 12.8 8.491 8.533 21.333 8.533 34.133 4.267 12.757-4.267 17.024-12.843 17.024-29.867 0-72.533 55.509-128 128-128 72.533 0 128 55.467 128 128v8.533c0 12.8 8.533 21.333 17.067 25.6 8.576 4.224 21.333 4.224 34.133-8.533 51.2-51.243 132.309-51.243 179.2 0 51.243 51.2 51.243 132.267-4.224 183.424-4.309 12.843-8.533 25.643-4.309 34.176z" />
<glyph unicode="&#xe929;" glyph-name="Q_f" d="M560.006 694.979c68.267-25.6 115.2-89.6 119.467-166.4 0-110.933-140.8-162.133-157.867-166.4-4.267-4.267-8.576-4.267-12.8-4.267-17.109 0-34.133 12.8-38.443 29.867-8.491 25.6 4.309 46.933 25.643 55.467 25.6 12.8 98.133 46.933 98.133 89.6 0 38.4-21.333 68.267-55.467 81.067-46.976 17.067-93.867-8.533-110.976-51.2-8.491-21.333-34.091-34.133-55.424-25.6-25.6 4.267-34.133 29.867-29.909 55.467 29.909 85.376 128 132.267 217.643 102.4zM512 917.333c-260.267 0-469.333-209.067-469.333-469.333 0-260.309 209.067-469.333 469.333-469.333s469.333 209.024 469.333 469.333c0 260.267-209.067 469.333-469.333 469.333zM482.133 264.565c17.067 17.024 42.667 17.024 59.733 0 8.576-8.533 12.8-21.333 12.8-29.867s-4.224-21.333-12.8-29.867c-8.533-8.576-17.067-12.8-29.867-12.8s-21.333 4.224-29.867 12.8c-8.533 8.533-12.8 17.067-12.8 29.867s4.267 21.333 12.8 29.867z" />
<glyph unicode="&#xe92a;" glyph-name="Q_o" d="M560.006 694.979c-89.643 29.867-187.733-17.024-217.643-102.4-4.224-25.6 4.309-51.2 29.909-55.467 21.333-8.533 46.933 4.267 55.424 25.6 17.109 42.667 64 68.267 110.976 51.2 34.133-12.8 55.467-42.667 55.467-81.067 0-42.667-72.533-76.8-98.133-89.6-21.333-8.533-34.133-29.867-25.643-55.467 4.309-17.067 21.333-29.867 38.443-29.867 4.224 0 8.533 0 12.8 4.267 17.067 4.267 157.867 55.467 157.867 166.4-4.267 76.8-51.2 140.8-119.467 166.4zM512 64c-213.333 0-384 170.667-384 384s170.667 384 384 384c213.333 0 384-170.667 384-384s-170.667-384-384-384zM512 917.333c-260.267 0-469.333-209.067-469.333-469.333 0-260.309 209.067-469.333 469.333-469.333s469.333 209.024 469.333 469.333c0 260.267-209.067 469.333-469.333 469.333zM482.133 264.565c-8.533-8.533-12.8-17.067-12.8-29.867s4.267-21.333 12.8-29.867c8.533-8.576 17.067-12.8 29.867-12.8s21.333 4.224 29.867 12.8c8.576 8.533 12.8 21.333 12.8 29.867s-4.224 21.333-12.8 29.867c-17.067 17.024-42.667 17.024-59.733 0z" />
<glyph unicode="&#xe92c;" glyph-name="revert" d="M597.333 422.4l115.2-115.2c17.067-17.067 17.067-42.667 0-59.733-8.533-8.533-21.333-12.8-29.867-12.8s-21.333 4.267-29.867 12.8l-128 128c-8.533 8.533-12.8 17.067-12.8 29.867v256c0 25.6 17.067 42.667 42.667 42.667s42.667-17.067 42.667-42.667v-238.933zM955.895 588.856c81.024-221.867-38.4-465.067-260.309-541.867-46.891-17.067-93.867-25.6-140.757-25.6-174.933 0-341.333 110.933-405.333 285.867-8.576 21.333 4.224 46.933 25.557 55.467s46.976-4.267 55.509-25.6c64-179.2 256-273.067 435.157-209.067 89.643 29.867 157.867 93.867 196.309 174.933 38.357 81.067 42.667 174.933 12.8 260.267-29.909 89.6-93.909 157.867-174.933 196.267-81.067 38.4-174.976 42.667-260.309 12.8-46.891-17.067-93.867-46.933-128-81.067l-119.424-115.2h149.333c25.557 0 34.091-8.533 34.091-34.133s-17.024-42.667-42.667-42.667h-268.757l-4.267 4.267c-4.309 0-4.309 0-8.533 4.267-4.309 0-4.309 4.267-4.309 4.267 0 4.267-4.224 4.267-4.224 8.533v268.8c0 25.6 17.067 42.667 42.667 42.667 25.557 0 42.667-17.067 42.667-42.667v-157.867l128 119.467c42.667 42.667 98.091 76.8 157.867 98.133 106.667 38.4 221.867 34.133 324.224-17.067 102.443-51.2 179.243-136.533 217.643-243.2z" />
<glyph unicode="&#xe92d;" glyph-name="save" d="M853.333 149.333c0-25.6-17.067-42.667-42.667-42.667h-42.667v298.667c0 25.6-17.067 42.667-42.667 42.667h-426.667c-25.6 0-42.667-17.067-42.667-42.667v-298.667h-42.667c-25.6 0-42.667 17.067-42.667 42.667v597.333c0 25.6 17.067 42.667 42.667 42.667h42.667v-170.667c0-25.6 17.067-42.667 42.667-42.667h341.333c25.6 0 42.667 17.067 42.667 42.667s-17.067 42.667-42.667 42.667h-298.667v128h324.267l187.733-187.733v-452.267zM341.333 106.667v256h341.333v-256h-341.333zM925.867 648.533l-213.333 213.333c-8.533 8.533-17.067 12.8-29.867 12.8h-469.333c-72.533 0-128-55.467-128-128v-597.333c0-72.533 55.467-128 128-128h597.333c72.533 0 128 55.467 128 128v469.333c0 12.8-4.267 21.333-12.8 29.867z" />
<glyph unicode="&#xe92e;" glyph-name="search" d="M170.667 512c0 153.6 123.733 277.333 277.333 277.333s277.333-123.733 277.333-277.333c0-76.8-29.867-145.067-81.067-196.267s-119.467-81.067-196.267-81.067c-153.6 0-277.333 123.733-277.333 277.333zM925.867 93.867l-192 192c46.933 59.733 76.8 140.8 76.8 226.133 0 200.533-162.133 362.667-362.667 362.667s-362.667-162.133-362.667-362.667c0-200.533 162.133-362.667 362.667-362.667 85.333 0 162.133 29.867 226.133 76.8l192-192c8.533-8.533 21.333-12.8 29.867-12.8s21.333 4.267 29.867 12.8c17.067 17.067 17.067 42.667 0 59.733z" />
<glyph unicode="&#xe92f;" glyph-name="setting" d="M512 362.658c-46.933 0-85.333 38.4-85.333 85.333 0 46.976 38.4 85.333 85.333 85.333s85.333-38.357 85.333-85.333c0-46.933-38.4-85.333-85.333-85.333zM512 618.658c-93.867 0-170.667-76.8-170.667-170.667s76.8-170.667 170.667-170.667c93.867 0 170.667 76.8 170.667 170.667s-76.8 170.667-170.667 170.667zM814.916 209.075c8.533-8.533 12.843-17.067 12.843-29.867s-4.309-21.333-12.843-29.867c-8.491-8.576-17.024-12.8-29.824-12.8-12.843 0-21.333 4.224-34.176 17.067-34.133 34.133-81.024 42.667-123.691 21.333-42.667-17.067-68.309-59.733-68.309-102.4v-8.533c0-25.6-17.024-42.667-42.667-42.667-25.6 0-42.667 17.067-42.667 42.667v4.267c0 46.933-29.824 85.333-72.491 102.4-12.843 8.533-29.867 8.533-46.976 8.533-29.867 0-59.691-12.8-81.024-34.133-17.109-17.067-38.443-17.067-55.509-4.309l-8.491 17.109h-4.309c-4.224 4.224-4.224 12.8-4.224 17.067 0 12.8 4.224 21.333 17.024 34.133 34.176 34.133 42.667 81.024 21.333 123.691-17.024 42.667-59.691 68.309-102.357 68.309h-8.576c-25.557 0-42.667 17.024-42.667 42.667 0 25.6 17.109 42.667 42.667 42.667h4.267c46.976 0 85.333 29.867 102.4 72.533 17.109 42.667 8.576 89.6-25.557 128-17.109 17.067-17.109 42.667 0 59.733 17.024 17.067 42.667 17.067 64-4.267 29.824-29.867 76.8-38.4 115.157-25.643l12.843 4.309c42.667 17.024 68.224 59.691 68.224 102.357v8.576c0 25.6 17.109 42.667 42.667 42.667 25.6 0 42.667-17.067 42.667-46.933 0-46.976 25.6-85.333 68.267-102.4s89.643-8.576 128 25.6c8.533 8.491 17.067 12.8 29.867 12.8s21.333-4.309 29.867-12.8c17.109-17.067 17.109-42.667-4.224-64-29.867-29.867-38.443-76.843-25.643-115.2l4.309-12.8c17.024-42.667 59.691-68.267 102.357-68.267h8.533c25.6 0 42.667-17.067 42.667-42.667s-17.067-42.667-46.891-42.667c-46.976 0-85.333-25.6-102.443-68.267-21.333-42.667-8.533-89.643 25.6-128zM866.116 302.942c4.309 8.491 12.8 17.067 29.867 17.067 72.576 0 128 55.424 128 128 0 72.533-55.424 128-128 128h-8.533c-8.533 0-17.024 4.267-21.333 12.757l-4.224 8.576c-4.309 8.533-4.309 21.333 8.533 34.091 46.891 46.976 51.157 115.243 12.8 166.443v12.8l-17.109 8.533c-21.333 21.333-51.2 34.133-85.333 34.133s-68.224-12.8-93.867-38.4c-8.491-8.533-21.333-8.533-29.824-4.267-8.533-4.267-17.109 8.533-17.109 21.333 0 72.533-55.424 128-128 128-72.533 0-128-55.467-128-128v-8.576c0-8.491-4.224-17.024-12.757-21.333l-8.576-4.224c-8.533-4.267-21.333 0-34.091 8.533-51.243 51.2-132.309 51.2-179.243 0-51.2-51.2-51.2-132.309 4.267-183.467 8.533-8.533 8.533-21.333 4.309-34.176-4.309-8.491-17.109-17.024-29.909-17.024-72.533 0-128-55.467-128-128s55.467-128 128-128h8.576c12.757 0 21.333-8.533 25.557-17.067 4.309-8.576 4.309-21.333-8.533-34.133-25.6-25.6-38.357-55.467-38.357-89.6 0-29.867 12.757-59.733 34.091-85.333l4.267-4.267 12.843-12.8c51.157-38.443 119.467-34.133 170.667 12.8 8.491 8.533 21.333 8.533 34.133 4.267 12.757-4.267 17.024-12.843 17.024-29.867 0-72.533 55.509-128 128-128 72.533 0 128 55.467 128 128v8.533c0 12.8 8.533 21.333 17.067 25.6 8.576 4.224 21.333 4.224 34.133-8.533 51.2-51.243 132.309-51.243 179.2 0 51.243 51.2 51.243 132.267-4.224 183.424-4.309 12.843-8.533 25.643-4.309 34.176z" />
<glyph unicode="&#xe930;" glyph-name="sub" d="M213.333 490.667h597.333c23.564 0 42.667-19.103 42.667-42.667s-19.103-42.667-42.667-42.667h-597.333c-23.564 0-42.667 19.103-42.667 42.667s19.103 42.667 42.667 42.667z" />
<glyph unicode="&#xe931;" glyph-name="sub_o" d="M512 64c-213.333 0-384 170.667-384 384s170.667 384 384 384c213.333 0 384-170.667 384-384s-170.667-384-384-384zM512 917.333c-260.267 0-469.333-209.067-469.333-469.333s209.067-469.333 469.333-469.333c260.267 0 469.333 209.067 469.333 469.333s-209.067 469.333-469.333 469.333zM682.667 490.667h-341.333c-25.6 0-42.667-17.067-42.667-42.667s17.067-42.667 42.667-42.667h341.333c25.6 0 42.667 17.067 42.667 42.667s-17.067 42.667-42.667 42.667z" />
<glyph unicode="&#xe932;" glyph-name="success" d="M815.403 732.877l-360.277-515.925-203.861 197.589c-18.987 18.347-47.445 18.347-66.389 0-18.944-18.389-18.944-45.952 0-64.341l237.056-229.76c9.472-9.173 18.944-13.781 33.195-13.781 14.208 0 23.723 4.608 33.152 13.781l393.515 548.139c18.944 18.347 18.944 45.909 0 64.299s-47.403 18.389-66.389 0z" />
<glyph unicode="&#xe933;" glyph-name="success_f" d="M757.461 590.549l-298.667-341.333c-7.808-8.875-18.901-14.165-30.72-14.549-0.427 0-0.939 0-1.408 0-11.307 0-22.144 4.48-30.165 12.501l-170.667 170.667c-16.683 16.64-16.683 43.648 0 60.331 16.683 16.64 43.648 16.64 60.331 0l138.411-138.411 268.629 306.987c15.531 17.792 42.539 19.541 60.203 4.011 17.749-15.531 19.541-42.453 4.053-60.203zM512 917.333c-260.267 0-469.333-209.067-469.333-469.333s209.067-469.333 469.333-469.333c260.267 0 469.333 209.067 469.333 469.333s-209.067 469.333-469.333 469.333z" />
<glyph unicode="&#xe934;" glyph-name="success_o" d="M512 64c-213.333 0-384 170.667-384 384s170.667 384 384 384c213.333 0 384-170.667 384-384s-170.667-384-384-384zM512 917.333c-260.267 0-469.333-209.067-469.333-469.333s209.067-469.333 469.333-469.333c260.267 0 469.333 209.067 469.333 469.333s-209.067 469.333-469.333 469.333zM693.21 646.771l-268.629-307.029-138.411 138.411c-16.683 16.683-43.648 16.683-60.331 0-16.683-16.64-16.683-43.648 0-60.331l170.667-170.667c7.979-8.021 18.859-12.501 30.165-12.501 0.469 0 0.939 0 1.408 0.043 11.819 0.384 22.912 5.675 30.72 14.549l298.667 341.333c15.488 17.749 13.696 44.672-4.053 60.203-17.664 15.531-44.672 13.781-60.203-4.011z" />
<glyph unicode="&#xe936;" glyph-name="sync" d="M878.933 358.4c21.333-4.267 34.176-29.867 29.867-55.467-21.333-59.733-59.691-115.2-102.357-157.867-81.109-81.067-187.776-123.733-302.976-123.733s-221.867 42.667-294.357 123.733l-123.776 119.467v-157.867c0-25.6-17.067-42.667-42.667-42.667-25.557 0-42.667 17.067-42.667 42.667v268.8c0 4.267 4.267 4.267 4.267 8.533 4.309 0 4.309 4.267 4.309 4.267 0 4.267 4.224 8.533 8.533 8.533 0 4.267 4.224 4.267 4.224 4.267h4.267c0 4.267 4.309 4.267 8.533 4.267h256c25.643 0 42.667-17.067 42.667-42.667s-17.024-42.667-42.667-42.667h-149.333l119.467-110.933c68.309-68.267 153.643-102.4 243.2-102.4 89.643 0 179.2 34.133 238.976 98.133 38.357 34.133 64 81.067 81.024 128 8.533 21.333 34.133 34.133 55.467 25.6zM958.406 831.276c25.6 0 42.667-17.067 42.667-42.667v-260.267c0-4.267 0-8.533-4.267-12.8 0-4.267-4.267-4.267-4.267-8.533-4.267 0-4.267-4.267-4.267-4.267-4.267-4.267-8.533-4.267-12.8-8.533s-12.8-4.267-17.067-4.267h-256c-25.6 0-42.667 17.067-42.667 42.667s17.067 42.667 42.667 42.667h149.333l-119.467 115.2c-34.133 38.4-81.067 64-128 81.067-85.333 29.867-179.2 25.6-260.267-12.8-81.067-42.667-145.067-110.933-174.933-196.267-8.533-21.333-34.133-34.133-55.467-25.6-21.333 4.267-34.133 29.867-25.6 51.2 38.4 110.933 115.2 196.267 217.6 243.2 102.4 51.2 217.6 55.467 328.533 21.333 59.733-21.333 115.2-59.733 157.867-102.4l123.733-119.467v157.867c0 25.6 17.067 42.667 42.667 42.667z" />
<glyph unicode="&#xe937;" glyph-name="trash" d="M768 106.667c0-25.6-17.067-42.667-42.667-42.667h-426.667c-25.6 0-42.667 17.067-42.667 42.667v554.667h512v-554.667zM384 789.333c0 25.6 17.067 42.667 42.667 42.667h170.667c25.6 0 42.667-17.067 42.667-42.667v-42.667h-256v42.667zM896 746.667h-170.667v42.667c0 72.533-55.467 128-128 128h-170.667c-72.533 0-128-55.467-128-128v-42.667h-170.667c-25.6 0-42.667-17.067-42.667-42.667s17.067-42.667 42.667-42.667h42.667v-554.667c0-72.533 55.467-128 128-128h426.667c72.533 0 128 55.467 128 128v554.667h42.667c25.6 0 42.667 17.067 42.667 42.667s-17.067 42.667-42.667 42.667zM426.667 191.996c25.6 0 42.667 17.067 42.667 42.667v256c0 25.6-17.067 42.667-42.667 42.667s-42.667-17.067-42.667-42.667v-256c0-25.6 17.067-42.667 42.667-42.667zM597.333 191.996c25.6 0 42.667 17.067 42.667 42.667v256c0 25.6-17.067 42.667-42.667 42.667s-42.667-17.067-42.667-42.667v-256c0-25.6 17.067-42.667 42.667-42.667z" />
<glyph unicode="&#xe938;" glyph-name="undo" d="M955.733 588.856c-38.4 106.667-115.2 192-217.643 243.2-102.357 51.2-217.557 55.467-324.224 17.067-59.776-21.333-115.2-55.467-157.867-98.133l-128-119.467v157.867c0 25.6-17.109 42.667-42.667 42.667-25.6 0-42.667-17.067-42.667-42.667v-268.8c0-4.267 4.224-4.267 4.224-8.533 0 0 0-4.267 4.309-4.267 4.224-4.267 4.224-4.267 8.533-4.267l4.267-4.267h268.757c25.643 0 42.667 17.067 42.667 42.667s-8.533 34.133-34.091 34.133h-149.333l119.424 115.2c34.133 34.133 81.109 64 128 81.067 85.333 29.867 179.243 25.6 260.309-12.8 81.024-38.4 145.024-106.667 174.933-196.267 29.867-85.333 25.557-179.2-12.8-260.267-38.443-81.067-106.667-145.067-196.309-174.933-179.157-64-371.157 29.867-435.157 209.067-8.533 21.333-34.176 34.133-55.509 25.6s-34.133-34.133-25.557-55.467c64-174.933 230.4-285.867 405.333-285.867 46.891 0 93.867 8.533 140.757 25.6 221.909 76.8 341.333 320 260.309 541.867z" />
<glyph unicode="&#xe939;" glyph-name="unlocked" d="M853.333 106.671c0-25.6-17.067-42.667-42.667-42.667h-597.333c-25.6 0-42.667 17.067-42.667 42.667v298.667c0 25.6 17.067 42.667 42.667 42.667h597.333c25.6 0 42.667-17.067 42.667-42.667v-298.667zM810.667 533.338h-469.333v128c0 46.933 17.067 89.6 51.2 119.467 29.867 34.133 72.533 51.2 119.467 51.2 81.067 0 149.333-55.467 166.4-136.533 4.267-21.333 29.867-38.4 51.2-34.133s38.4 25.6 34.133 51.2c-25.6 119.467-132.267 204.8-251.733 204.8-68.267 0-132.267-25.6-179.2-76.8-51.2-46.933-76.8-110.933-76.8-179.2v-128h-42.667c-72.533 0-128-55.467-128-128v-298.667c0-72.533 55.467-128 128-128h597.333c72.533 0 128 55.467 128 128v298.667c0 72.533-55.467 128-128 128z" />
<glyph unicode="&#xe93a;" glyph-name="upload" d="M896 277.333c25.6 0 42.667-17.067 42.667-42.667v-128c0-72.533-55.467-128-128-128h-597.333c-72.533 0-128 55.467-128 128v128c0 25.6 17.067 42.667 42.667 42.667s42.667-17.067 42.667-42.667v-128c0-25.6 17.067-42.667 42.667-42.667h597.333c25.6 0 42.667 17.067 42.667 42.667v128c0 25.6 17.067 42.667 42.667 42.667zM371.2 675.189c-17.067-17.024-42.667-17.024-59.733 0-17.067 17.067-17.067 42.667 0 59.733l170.667 170.667c4.267 4.267 8.533 4.267 12.757 8.576 12.843 4.224 25.643 4.224 34.176 0 4.267 0 8.491-4.309 12.8-8.576l170.667-170.667c17.024-17.067 17.024-42.667 0-59.733-8.533-8.533-17.067-12.8-29.867-12.8s-21.333 4.267-29.867 12.8l-98.133 98.133v-494.933c0-25.557-17.109-42.667-42.667-42.667-25.6 0-42.667 17.109-42.667 42.667v494.933l-98.133-98.133z" />
<glyph unicode="&#xe93b;" glyph-name="view" d="M510.933 149.333c-230.4 0-379.733 230.4-422.4 298.667 38.4 68.267 192 298.667 422.4 298.667s379.733-230.4 422.4-298.667c-42.667-68.267-192-298.667-422.4-298.667zM1018.667 465.067c-8.533 17.067-187.733 366.933-507.733 366.933s-499.2-349.867-507.733-366.933c-4.267-12.8-4.267-25.6 0-38.4 8.533-12.8 187.733-362.667 507.733-362.667s499.2 349.867 507.733 366.933c4.267 8.533 4.267 25.6 0 34.133zM512 362.667c-46.933 0-85.333 38.4-85.333 85.333s38.4 85.333 85.333 85.333c46.933 0 85.333-38.4 85.333-85.333s-38.4-85.333-85.333-85.333zM512 618.667c-93.867 0-170.667-76.8-170.667-170.667s76.8-170.667 170.667-170.667c93.867 0 170.667 76.8 170.667 170.667s-76.8 170.667-170.667 170.667z" />
<glyph unicode="&#xe93c;" glyph-name="X_f" d="M512 917.333c260.267 0 469.333-209.067 469.333-469.333s-209.067-469.333-469.333-469.333c-260.267 0-469.333 209.067-469.333 469.333s209.067 469.333 469.333 469.333zM651.055 605.894c-17.067 17.024-42.667 17.024-59.733 0l-98.133-98.133-98.133 98.133c-17.067 17.024-42.667 17.024-59.733 0-17.067-17.067-17.067-42.667 0-59.733l98.091-98.133-98.091-98.133c-17.067-17.067-17.067-42.667 0-59.733 8.533-8.576 17.067-12.8 29.867-12.8s21.333 4.224 29.867 12.8l98.133 98.091 98.133-98.091c8.533-8.576 21.333-12.8 29.867-12.8s21.333 4.224 29.867 12.8c17.024 17.067 17.024 42.667 0 59.733l-98.133 98.133 98.133 98.133c17.024 17.067 17.024 42.667 0 59.733z" />
<glyph unicode="&#xe93d;" glyph-name="X_o" d="M512 64c-213.333 0-384 170.667-384 384s170.667 384 384 384c213.333 0 384-170.667 384-384s-170.667-384-384-384zM512 917.333c-260.267 0-469.333-209.067-469.333-469.333s209.067-469.333 469.333-469.333c260.267 0 469.333 209.067 469.333 469.333s-209.067 469.333-469.333 469.333zM651.055 605.894c-17.067 17.024-42.667 17.024-59.733 0l-98.133-98.133-98.133 98.133c-17.067 17.024-42.667 17.024-59.733 0-17.067-17.067-17.067-42.667 0-59.733l98.091-98.133-98.091-98.133c-17.067-17.067-17.067-42.667 0-59.733 8.533-8.576 17.067-12.8 29.867-12.8s21.333 4.224 29.867 12.8l98.133 98.091 98.133-98.091c8.533-8.576 21.333-12.8 29.867-12.8s21.333 4.224 29.867 12.8c17.024 17.067 17.024 42.667 0 59.733l-98.133 98.133 98.133 98.133c17.024 17.067 17.024 42.667 0 59.733z" />
</font>
</defs>
</svg>
