<?xml version="1.0" standalone="no"?>
<!DOCTYPE svg PUBLIC "-//W3C//DTD SVG 1.1//EN" "http://www.w3.org/Graphics/SVG/1.1/DTD/svg11.dtd" >
<!--
2013-9-30: Created.
-->
<svg>
<metadata>
Created by iconfont
</metadata>
<defs>

<font id="iconfont" horiz-adv-x="1024" >
  <font-face
    font-family="iconfont"
    font-weight="500"
    font-stretch="normal"
    units-per-em="1024"
    ascent="896"
    descent="-128"
  />
    <missing-glyph />
    
    <glyph glyph-name="x" unicode="x" horiz-adv-x="1001"
d="M281 543q-27 -1 -53 -1h-83q-18 0 -36.5 -6t-32.5 -18.5t-23 -32t-9 -45.5v-76h912v41q0 16 -0.5 30t-0.5 18q0 13 -5 29t-17 29.5t-31.5 22.5t-49.5 9h-133v-97h-438v97zM955 310v-52q0 -23 0.5 -52t0.5 -58t-10.5 -47.5t-26 -30t-33 -16t-31.5 -4.5q-14 -1 -29.5 -0.5
t-29.5 0.5h-32l-45 128h-439l-44 -128h-29h-34q-20 0 -45 1q-25 0 -41 9.5t-25.5 23t-13.5 29.5t-4 30v167h911zM163 247q-12 0 -21 -8.5t-9 -21.5t9 -21.5t21 -8.5q13 0 22 8.5t9 21.5t-9 21.5t-22 8.5zM316 123q-8 -26 -14 -48q-5 -19 -10.5 -37t-7.5 -25t-3 -15t1 -14.5
t9.5 -10.5t21.5 -4h37h67h81h80h64h36q23 0 34 12t2 38q-5 13 -9.5 30.5t-9.5 34.5q-5 19 -11 39h-368zM336 498v228q0 11 2.5 23t10 21.5t20.5 15.5t34 6h188q31 0 51.5 -14.5t20.5 -52.5v-227h-327z" />
    

    
    <glyph glyph-name="calendar" unicode="&#58936;" d="M819.2 691.2v-51.2h51.2v-102.4h-716.8v102.4h51.2v51.2h-102.4v-716.8h819.2v716.8h-102.4zM870.4 25.6h-716.8v460.8h716.8v-460.8zM358.4 691.2h307.2v-51.2h-307.2zM819.2 435.2h-614.4v-358.4h614.4v358.4zM358.4 128h-102.4v51.2h102.4v-51.2zM358.4 230.4h-102.4v51.2h102.4v-51.2zM358.4 332.8h-102.4v51.2h102.4v-51.2zM614.4 128h-204.8v51.2h204.8v-51.2zM614.4 230.4h-204.8v51.2h204.8v-51.2zM614.4 332.8h-204.8v51.2h204.8v-51.2zM768 128h-102.4v51.2h102.4v-51.2zM768 230.4h-102.4v51.2h102.4v-51.2zM768 332.8h-102.4v51.2h102.4v-51.2zM256 793.6h51.2v-153.6h-51.2zM716.8 793.6h51.2v-153.6h-51.2z"  horiz-adv-x="1024" />

    
    <glyph glyph-name="plus" unicode="&#58938;" d="M870.4 424.96h-317.44v317.44h-81.92v-317.44h-317.44v-81.92h317.44v-317.44h81.92v317.44h317.44z"  horiz-adv-x="1024" />

    
    <glyph glyph-name="caret-down" unicode="&#58940;" d="M512 307.2l-153.6 153.6h307.2z"  horiz-adv-x="1024" />

    
    <glyph glyph-name="angle-left" unicode="&#58941;" d="M716.8 56.32000000000005L276.48 384 716.8 711.6800000000001l30.72-40.96L363.52 384l384-286.72z"  horiz-adv-x="1024" />

    
    <glyph glyph-name="angle-right" unicode="&#58942;" d="M307.2 711.6800000000001l440.32-327.68L307.2 56.32000000000005l-30.72 40.96 384 286.72-384 286.72z"  horiz-adv-x="1024" />

    
    <glyph glyph-name="angle-down" unicode="&#58943;" d="M839.68 588.8L512 148.48000000000002 184.32 588.8l40.96 30.72 286.72-384 286.72 384z"  horiz-adv-x="1024" />

    
    <glyph glyph-name="angle-up" unicode="&#58944;" d="M184.32 179.20000000000005L512 619.52l327.68-440.32-40.96-30.72L512 532.48l-286.72-384z"  horiz-adv-x="1024" />

    
    <glyph glyph-name="circle-o-notch" unicode="&#58949;" d="M153.6 384c0 199.68 158.72 358.4 358.4 358.4 15.36 0 25.6-10.24 25.6-25.6s-10.24-25.6-25.6-25.6c-168.96 0-307.2-138.24-307.2-307.2s138.24-307.2 307.2-307.2 307.2 138.24 307.2 307.2c0 15.36 10.24 25.6 25.6 25.6s25.6-10.24 25.6-25.6c0-199.68-158.72-358.4-358.4-358.4s-358.4 158.72-358.4 358.4z"  horiz-adv-x="1024" />

    
    <glyph glyph-name="close" unicode="&#58950;" d="M865.28 696.32l-40.96 40.96L512 419.84 199.68 737.28l-40.96-40.96L476.16 384l-317.44-312.32 40.96-40.96 312.32 317.44 312.32-317.44 40.96 40.96-317.44 312.32z"  horiz-adv-x="1024" />

    
    <glyph glyph-name="exclamation-circle" unicode="&#58951;" d="M512 865.882353C245.458824 865.882353 30.117647 650.541176 30.117647 384s215.341176-481.882353 481.882353-481.882353 481.882353 215.341176 481.882353 481.882353S778.541176 865.882353 512 865.882353z m0-903.529412C280.094118-37.647059 90.352941 152.094118 90.352941 384S280.094118 805.647059 512 805.647059s421.647059-189.741176 421.647059-421.647059-189.741176-421.647059-421.647059-421.647059zM512 274.070588c18.070588 0 31.623529 13.552941 31.623529 31.62353l6.02353 334.305882c0 21.082353-16.564706 37.647059-37.647059 37.647059s-37.647059-16.564706-37.647059-37.647059l4.517647-332.8c1.505882-18.070588 15.058824-33.129412 33.129412-33.129412zM512 123.482353m-45.176471 0a45.176471 45.176471 0 1 1 90.352942 0 45.176471 45.176471 0 1 1-90.352942 0Z"  horiz-adv-x="1024" />

    
    <glyph glyph-name="alert-close" unicode="&#58952;" d="M737.28 568.32l-40.96 40.96-184.32-189.44-184.32 189.44-40.96-40.96 189.44-184.32-189.44-184.32 40.96-40.96 184.32 189.44 184.32-189.44 40.96 40.96-189.44 184.32z"  horiz-adv-x="1024" />

    
    <glyph glyph-name="card_actions" unicode="&#58958;" d="M238.933 452.267c-37.705-0.010-68.267-30.578-68.267-68.284 0-37.712 30.572-68.284 68.284-68.284 0.006 0 0.012 0 0.018 0 37.704 0.010 68.266 30.578 68.266 68.284 0 37.712-30.572 68.284-68.284 68.284-0.006 0-0.012-0-0.018-0M785.067 452.267c-37.705-0.010-68.267-30.578-68.267-68.284 0-37.712 30.572-68.284 68.284-68.284 0.006 0 0.012 0 0.018 0 37.704 0.010 68.266 30.578 68.266 68.284 0 37.712-30.572 68.284-68.284 68.284-0.006 0-0.012-0-0.018-0M512 452.267c-37.705-0.010-68.267-30.578-68.267-68.284 0-37.712 30.572-68.284 68.284-68.284 0.006 0 0.012 0 0.018 0 37.704 0.010 68.266 30.578 68.266 68.284 0 37.712-30.572 68.284-68.284 68.284-0.006 0-0.012-0-0.018-0z"  horiz-adv-x="1024" />

    
    <glyph glyph-name="data-empty" unicode="&#58959;" d="M358.4 523.9466669999999c-6.826667 0-13.653333-6.826667-13.653333-13.653334v-552.96c0-6.826667 6.826667-13.653333 13.653333-13.653333s13.653333 6.826667 13.653333 13.653333V506.88c0 10.24-6.826667 17.066667-13.653333 17.066667zM85.333333 281.6c-6.826667 0-17.066667-6.826667-17.066666-13.653333v-310.613334c0-6.826667 10.24-13.653333 17.066666-13.653333s13.653333 6.826667 13.653334 13.653333v310.613334c0 6.826667-3.413333 13.653333-13.653334 13.653333zM969.386667 472.746667c-6.826667 0-13.653333-6.826667-13.653334-13.653334v-505.173333c0-6.826667 6.826667-13.653333 13.653334-13.653333s13.653333 6.826667 13.653333 13.653333V459.093333c3.413333 6.826667-3.413333 13.653333-13.653333 13.653334zM1003.52 677.5466670000001c10.24 0 17.066667 6.826667 20.48 17.066666V810.666667c0 3.413333-3.413333 10.24-6.826667 13.653333-3.413333 3.413333-6.826667 3.413333-13.653333 3.413333l-116.053333-10.24c-10.24 0-17.066667-10.24-17.066667-17.066666 0-10.24 10.24-17.066667 20.48-17.066667l71.68 6.826667-279.893333-300.373334L361.813333 793.6c-6.826667 6.826667-17.066667 6.826667-23.893333 0L6.826667 500.053333c-6.826667-6.826667-6.826667-17.066667 0-23.893333 6.826667-6.826667 17.066667-6.826667 27.306666 0L348.16 759.466667l320.853333-307.2c3.413333-3.413333 6.826667-3.413333 13.653334-3.413334 3.413333 0 10.24 3.413333 13.653333 6.826667l290.133333 314.026667v-68.266667c0-13.653333 6.826667-23.893333 17.066667-23.893333zM665.6 281.6c-6.826667 0-13.653333-6.826667-13.653333-13.653333v-310.613334c0-6.826667 6.826667-13.653333 13.653333-13.653333s13.653333 6.826667 13.653333 13.653333v310.613334c3.413333 6.826667-3.413333 13.653333-13.653333 13.653333z"  horiz-adv-x="1024" />

    
    <glyph glyph-name="help" unicode="&#58961;" d="M512 793.6c-225.28 0-409.6-184.32-409.6-409.6s184.32-409.6 409.6-409.6 409.6 184.32 409.6 409.6-184.32 409.6-409.6 409.6z m0-768c-199.68 0-358.4 158.72-358.4 358.4s158.72 358.4 358.4 358.4 358.4-158.72 358.4-358.4-158.72-358.4-358.4-358.4zM506.88 235.51999999999998c-10.24 0-20.48-5.12-25.6-10.24-5.12-5.12-10.24-15.36-10.24-25.6s5.12-20.48 10.24-25.6c5.12-5.12 15.36-10.24 25.6-10.24s20.48 5.12 25.6 10.24c5.12 5.12 10.24 15.36 10.24 25.6s-5.12 20.48-10.24 25.6c-5.12 5.12-15.36 10.24-25.6 10.24zM517.12 609.28c-46.08 0-76.8-15.36-102.4-40.96s-35.84-61.44-35.84-102.4h46.08c0 30.72 5.12 51.2 20.48 71.68 15.36 15.36 40.96 25.6 71.68 25.6 25.6 0 46.08-5.12 61.44-20.48 15.36-15.36 20.48-30.72 20.48-56.32 0-15.36-5.12-30.72-20.48-46.08l-20.48-20.48c-30.72-30.72-51.2-51.2-61.44-71.68-5.12-15.36-10.24-30.72-10.24-51.2v-15.36h51.2v15.36c0 15.36 5.12 30.72 10.24 46.08 5.12 10.24 15.36 20.48 30.72 35.84 25.6 25.6 46.08 40.96 51.2 46.08 10.24 10.24 15.36 35.84 15.36 61.44 0 35.84-10.24 66.56-35.84 87.04-20.48 25.6-51.2 35.84-92.16 35.84z"  horiz-adv-x="1024" />

    
    <glyph glyph-name="export" unicode="&#58962;" d="M870.4 240.64v10.24 10.24c0 5.12-5.12 5.12-5.12 10.24l-128 128c-10.24 10.24-25.6 10.24-35.84 0s-10.24-25.6 0-35.84l87.04-87.04H399.36c-15.36 0-25.6-10.24-25.6-25.6s10.24-25.6 25.6-25.6h384l-87.04-87.04c-10.24-10.24-10.24-25.6 0-35.84 5.12-5.12 10.24-5.12 20.48-5.12s15.36 0 20.48 5.12l128 128c0 5.12 0 5.12 5.12 10.24zM634.88 76.79999999999995H220.16c-10.24 0-15.36 5.12-15.36 15.36V491.52h174.08c15.36 0 25.6 10.24 25.6 25.6V691.2h225.28c5.12 0 15.36-5.12 15.36-15.36V486.4c0-15.36 10.24-25.6 25.6-25.6s25.6 10.24 25.6 25.6V675.84C691.2 711.6800000000001 665.6 742.4 629.76 742.4H343.04c-10.24 0-15.36-5.12-20.48-5.12L158.72 573.44c0-5.12-5.12-10.24-5.12-15.36v-465.92c0-35.84 30.72-66.56 66.56-66.56h409.6c10.24 0 20.48 5.12 30.72 10.24 10.24 5.12 15.36 20.48 10.24 35.84-10.24 10.24-25.6 15.36-35.84 5.12zM353.28 691.2v-148.48H204.8L353.28 691.2z"  horiz-adv-x="1024" />

    
    <glyph glyph-name="column" unicode="&#59025;" d="M512 793.6c15.36 0 25.6-10.24 25.6-25.6v-768c0-15.36-10.24-25.6-25.6-25.6s-25.6 10.24-25.6 25.6v768c0 15.36 10.24 25.6 25.6 25.6zM358.4 793.6c15.36 0 25.6-10.24 25.6-25.6v-768c0-15.36-10.24-25.6-25.6-25.6s-25.6 10.24-25.6 25.6v768c0 15.36 10.24 25.6 25.6 25.6zM665.6 793.6c15.36 0 25.6-10.24 25.6-25.6v-768c0-15.36-10.24-25.6-25.6-25.6s-25.6 10.24-25.6 25.6v768c0 15.36 10.24 25.6 25.6 25.6z"  horiz-adv-x="1024" />

    
    <glyph glyph-name="refresh" unicode="&#59032;" d="M824.32 742.4c-5.12 0-5.12 0 0 0-20.48 0-30.72-10.24-30.72-25.6v-133.12c-87.04 122.88-245.76 168.96-389.12 117.76-148.48-51.2-235.52-199.68-225.28-358.4 10.24-158.72 133.12-286.72 281.6-312.32 153.6-25.6 302.08 56.32 363.52 204.8 5.12 10.24 0 25.6-10.24 30.72-10.24 5.12-25.6 0-30.72-10.24-56.32-128-184.32-199.68-317.44-179.2-133.12 20.48-235.52 133.12-245.76 271.36s71.68 266.24 199.68 307.2c128 40.96 261.12-5.12 337.92-117.76H614.4c-15.36 0-25.6-10.24-25.6-25.6s10.24-25.6 25.6-25.6h230.4V716.8c0 15.36-10.24 25.6-20.48 25.6z"  horiz-adv-x="1024" />

    
    <glyph glyph-name="check" unicode="&#59037;" d="M832 672c-6.4 6.4-19.2 12.8-25.6 12.8-12.8 0-32-6.4-38.4-19.2l-345.6-460.8-198.4 172.8c-25.6 12.8-51.2 12.8-70.4-6.4-12.8-19.2-12.8-51.2 6.4-70.4l236.8-198.4c6.4-6.4 19.2-12.8 32-12.8h6.4c12.8 0 25.6 6.4 32 19.2l377.6 505.6c6.4 6.4 6.4 19.2 6.4 32 0 6.4-6.4 19.2-19.2 25.6z"  horiz-adv-x="1024" />

    
    <glyph glyph-name="cloud_host_p_20" unicode="&#59080;" d="M906.24 496.64H476.16c-35.84 0-66.56-30.72-66.56-66.56v-327.68c0-35.84 30.72-66.56 66.56-66.56h430.08c35.84 0 66.56 30.72 66.56 66.56V430.08c0 35.84-30.72 66.56-66.56 66.56z m-10.24-256h-409.6c-15.36 0-25.6 10.24-25.6 25.6s10.24 25.6 25.6 25.6h409.6c15.36 0 25.6-10.24 25.6-25.6s-10.24-25.6-25.6-25.6zM614.4 163.84000000000003c0-15.36-10.24-25.6-25.6-25.6h-51.2c-15.36 0-25.6 10.24-25.6 25.6s10.24 25.6 25.6 25.6h51.2c15.36 0 25.6-15.36 25.6-25.6z m-102.4 204.8c0 15.36 10.24 25.6 25.6 25.6h51.2c15.36 0 25.6-10.24 25.6-25.6s-10.24-25.6-25.6-25.6h-51.2c-15.36 0-25.6 10.24-25.6 25.6zM430.08 547.8399999999999h358.4v30.72V588.8c-35.84 87.04-117.76 143.36-209.92 143.36-87.04 0-163.84-51.2-204.8-128-25.6 15.36-51.2 25.6-76.8 25.6C215.04 629.76 153.6 563.2 153.6 481.28v-15.36c-61.44-25.6-102.4-87.04-102.4-158.72 0-97.28 76.8-174.08 168.96-174.08h133.12V465.92c0 46.08 30.72 81.92 76.8 81.92z"  horiz-adv-x="1024" />

    
    <glyph glyph-name="cloud_environment_p_20" unicode="&#59081;" d="M896 389.12c-25.6 5.12-46.08 0-46.08 0-10.24 0-117.76 5.12-158.72-102.4-5.12-10.24-15.36-15.36-25.6-15.36h-10.24c-15.36 5.12-20.48 20.48-15.36 30.72 40.96 112.64 153.6 138.24 204.8 138.24h5.12v20.48c0 143.36-112.64 256-250.88 256-97.28 0-184.32-56.32-225.28-143.36-15.36 15.36-46.08 25.6-76.8 25.6-87.04 0-158.72-71.68-158.72-163.84v-20.48C71.68 384 25.6 317.44000000000005 25.6 240.64c0-102.4 81.92-189.44 189.44-189.44h614.4c97.28 0 174.08 76.8 174.08 174.08-5.12 71.68-46.08 133.12-107.52 163.84z"  horiz-adv-x="1024" />

    
    <glyph glyph-name="cloud_hard_disk_p_20" unicode="&#59082;" d="M972.8 286.72l-102.4 414.72c-5.12 10.24-15.36 20.48-25.6 20.48h-665.6c-10.24-5.12-20.48-15.36-25.6-25.6l-102.4-409.6v-163.84c0-40.96 35.84-76.8 76.8-76.8h768c40.96 0 76.8 35.84 76.8 76.8v163.84c0-5.12 0-5.12 0 0z m-819.2-30.72c-15.36 0-25.6 10.24-25.6 25.6s10.24 25.6 25.6 25.6h716.8c15.36 0 25.6-10.24 25.6-25.6s-10.24-25.6-25.6-25.6H153.6zM307.2 179.20000000000005c0-15.36-10.24-25.6-25.6-25.6h-102.4c-15.36 0-25.6 10.24-25.6 25.6s10.24 25.6 25.6 25.6h102.4c15.36 0 25.6-10.24 25.6-25.6z"  horiz-adv-x="1024" />

    
    <glyph glyph-name="backup_data_20" unicode="&#59096;" d="M952.32 384c-5.12 0-5.12 0 0 0-5.12 0-5.12 0 0 0-5.12 0-5.12 0 0 0H512V819.2v5.12 5.12c-10.24 10.24-15.36 15.36-25.6 15.36h-5.12C240.64 824.3199999999999 51.2 624.64 51.2 384c0-256 204.8-460.8 460.8-460.8 240.64 0 440.32 189.44 460.8 430.08v5.12c0 15.36-10.24 25.6-20.48 25.6zM512-25.600000000000023c-225.28 0-409.6 184.32-409.6 409.6 0 209.92 153.6 378.88 358.4 404.48v-430.08c0-15.36 10.24-25.6 25.6-25.6h430.08c-25.6-204.8-194.56-358.4-404.48-358.4zM588.8 435.2h358.4c15.36 0 25.6 10.24 25.6 25.6C972.8 670.72 798.72 844.8 588.8 844.8c-15.36 0-25.6-10.24-25.6-25.6v-358.4c0-15.36 10.24-25.6 25.6-25.6zM921.6 486.4h-307.2V793.6c163.84-15.36 291.84-143.36 307.2-307.2z"  horiz-adv-x="1024" />

    
    <glyph glyph-name="click_20" unicode="&#59106;" d="M829.44 419.84h-25.6c-51.2 0-168.96 5.12-256 10.24-5.12 0-10.24 5.12-10.24 10.24v256c0 51.2-51.2 92.16-102.4 92.16s-102.4-46.08-102.4-92.16v-445.44h-20.48l-46.08 117.76-5.12 5.12c-20.48 35.84-71.68 51.2-117.76 25.6-35.84-20.48-35.84-46.08-40.96-61.44v-10.24c0-10.24 0-35.84 117.76-353.28 10.24-30.72 40.96-51.2 71.68-51.2h486.4c35.84 0 66.56 25.6 76.8 61.44 10.24 51.2 66.56 312.32 71.68 343.04-5.12 46.08-56.32 81.92-97.28 92.16z m-25.6-424.96c0-10.24-15.36-20.48-25.6-20.48H291.84c-10.24 0-20.48 5.12-25.6 15.36C189.44 204.79999999999995 153.6 302.08000000000004 153.6 322.55999999999995V332.79999999999995c0 10.24 5.12 15.36 15.36 25.6 15.36 10.24 40.96 5.12 51.2-10.24l46.08-117.76c15.36-35.84 51.2-30.72 66.56-25.6 15.36 0 46.08 10.24 46.08 51.2V701.44c5.12 15.36 30.72 40.96 56.32 40.96 25.6 0 51.2-25.6 51.2-40.96v-256c0-30.72 25.6-56.32 56.32-61.44 87.04-5.12 209.92-10.24 261.12-10.24h20.48c20.48-5.12 46.08-25.6 51.2-40.96-5.12-20.48-51.2-220.16-71.68-337.92z"  horiz-adv-x="1024" />

    
    <glyph glyph-name="global_service_directory_20" unicode="&#59153;" d="M742.4 588.8h-358.4c-15.36 0-25.6-10.24-25.6-25.6s10.24-25.6 25.6-25.6h358.4c15.36 0 25.6 10.24 25.6 25.6s-10.24 25.6-25.6 25.6zM742.4 409.6h-358.4c-15.36 0-25.6-10.24-25.6-25.6s10.24-25.6 25.6-25.6h358.4c15.36 0 25.6 10.24 25.6 25.6s-10.24 25.6-25.6 25.6zM742.4 230.39999999999998h-358.4c-15.36 0-25.6-10.24-25.6-25.6s10.24-25.6 25.6-25.6h358.4c15.36 0 25.6 10.24 25.6 25.6s-10.24 25.6-25.6 25.6zM296.96 583.6800000000001C291.84 588.8 281.6 588.8 271.36 588.8c-5.12 0-5.12-5.12-10.24-5.12 0-5.12 0-5.12-5.12-10.24v-10.24c0-5.12 0-15.36 5.12-15.36 0-5.12 5.12-5.12 10.24-5.12h10.24c5.12 0 15.36 5.12 15.36 10.24 5.12-5.12 10.24 5.12 10.24 10.24v10.24l-10.24 10.24zM296.96 404.48c-10.24 10.24-25.6 10.24-35.84 0 0-5.12 0-10.24-5.12-10.24v-20.48c0-5.12 5.12-5.12 5.12-10.24 5.12-5.12 10.24-10.24 20.48-10.24h10.24c5.12 0 5.12 5.12 10.24 5.12s5.12 5.12 5.12 10.24v10.24 10.24c-5.12 5.12-5.12 10.24-10.24 15.36zM291.84 230.39999999999998c-10.24 5.12-20.48 0-25.6-5.12-5.12 0-5.12-5.12-5.12-10.24v-10.24c0-5.12 0-15.36 5.12-15.36 0-10.24 10.24-10.24 15.36-10.24h10.24c5.12 0 5.12 5.12 10.24 5.12 0 5.12 5.12 15.36 5.12 20.48s-5.12 15.36-10.24 20.48l-5.12 5.12zM844.8 793.6h-665.6C138.24 793.6 102.4 757.76 102.4 716.8v-665.6c0-40.96 35.84-76.8 76.8-76.8h665.6c40.96 0 76.8 35.84 76.8 76.8v665.6c0 40.96-35.84 76.8-76.8 76.8z m25.6-742.4c0-15.36-10.24-25.6-25.6-25.6h-665.6c-15.36 0-25.6 10.24-25.6 25.6v665.6c0 15.36 10.24 25.6 25.6 25.6h665.6c15.36 0 25.6-10.24 25.6-25.6v-665.6z"  horiz-adv-x="1024" />

    
    <glyph glyph-name="display_20" unicode="&#59155;" d="M512 691.2c-215.04 0-409.6-174.08-409.6-307.2s194.56-307.2 409.6-307.2 409.6 174.08 409.6 307.2-194.56 307.2-409.6 307.2z m0-563.2c-199.68 0-358.4 153.6-358.4 256s158.72 256 358.4 256 358.4-153.6 358.4-256-158.72-256-358.4-256zM512 512c-71.68 0-128-56.32-128-128s56.32-128 128-128 128 56.32 128 128-56.32 128-128 128z m0-204.8c-40.96 0-76.8 35.84-76.8 76.8s35.84 76.8 76.8 76.8 76.8-35.84 76.8-76.8-35.84-76.8-76.8-76.8z"  horiz-adv-x="1024" />

    
    <glyph glyph-name="delete" unicode="&#59163;" d="M512 844.8c-256 0-460.8-204.8-460.8-460.8s204.8-460.8 460.8-460.8 460.8 204.8 460.8 460.8-204.8 460.8-460.8 460.8z m0-870.4c-225.28 0-409.6 184.32-409.6 409.6s184.32 409.6 409.6 409.6 409.6-184.32 409.6-409.6-184.32-409.6-409.6-409.6zM691.2 409.6h-358.4c-15.36 0-25.6-10.24-25.6-25.6s10.24-25.6 25.6-25.6h363.52c15.36 0 25.6 10.24 25.6 25.6s-15.36 25.6-30.72 25.6z"  horiz-adv-x="1024" />

    
    <glyph glyph-name="search_20" unicode="&#59176;" d="M962.56-30.720000000000027l-153.6 148.48c71.68 76.8 117.76 179.2 117.76 296.96 0 240.64-194.56 435.2-435.2 435.2C245.76 844.8 51.2 650.24 51.2 409.6S245.76-25.600000000000023 486.4-25.600000000000023c107.52 0 209.92 40.96 286.72 107.52l158.72-148.48c5.12-5.12 10.24-5.12 15.36-5.12 5.12 0 15.36 5.12 20.48 10.24 10.24 5.12 5.12 20.48-5.12 30.72zM102.4 409.6C102.4 619.52 276.48 793.6 486.4 793.6S870.4 619.52 870.4 409.6c0-215.04-174.08-384-384-384S102.4 194.55999999999995 102.4 409.6z"  horiz-adv-x="1024" />

    
    <glyph glyph-name="add" unicode="&#59177;" d="M512 844.8c-256 0-460.8-204.8-460.8-460.8s204.8-460.8 460.8-460.8 460.8 204.8 460.8 460.8-204.8 460.8-460.8 460.8z m0-870.4c-225.28 0-409.6 184.32-409.6 409.6s184.32 409.6 409.6 409.6 409.6-184.32 409.6-409.6-184.32-409.6-409.6-409.6zM691.2 409.6h-153.6v153.6c0 15.36-10.24 25.6-25.6 25.6s-25.6-10.24-25.6-25.6v-153.6h-153.6c-15.36 0-25.6-10.24-25.6-25.6s10.24-25.6 25.6-25.6h153.6v-153.6c0-15.36 10.24-25.6 25.6-25.6s25.6 10.24 25.6 25.6v153.6h153.6c15.36 0 25.6 10.24 25.6 25.6s-10.24 25.6-25.6 25.6z"  horiz-adv-x="1024" />

    
    <glyph glyph-name="abnormal_20" unicode="&#59193;" d="M957.44 143.36l-384 563.2C563.2 732.16 537.6 742.4 512 742.4s-51.2-10.24-61.44-35.84l-384-563.2c-15.36-25.6-15.36-56.32-5.12-76.8 10.24-25.6 35.84-40.96 66.56-40.96h768c30.72 0 56.32 15.36 66.56 40.96 15.36 25.6 15.36 56.32-5.12 76.8z m-40.96-51.2c0-5.12-10.24-15.36-20.48-15.36h-768c-15.36 0-20.48 10.24-20.48 15.36 0 5.12-5.12 15.36 0 25.6l384 563.2c5.12 5.12 10.24 10.24 20.48 10.24s15.36-5.12 20.48-10.24l384-563.2c5.12-10.24 5.12-20.48 0-25.6zM512 512c-15.36 0-25.6-10.24-25.6-25.6v-204.8c0-15.36 10.24-25.6 25.6-25.6s25.6 10.24 25.6 25.6V486.4c0 15.36-10.24 25.6-25.6 25.6zM512 204.79999999999995c-15.36 0-25.6-10.24-25.6-25.6v-20.48c0-15.36 10.24-25.6 25.6-25.6s25.6 10.24 25.6 25.6V179.20000000000005c0 15.36-10.24 25.6-25.6 25.6z"  horiz-adv-x="1024" />

    
    <glyph glyph-name="risk_48" unicode="&#59294;" d="M913.066667 61.86666700000001l-364.8 682.666666c-8.533333 14.933333-21.333333 21.333333-36.266667 21.333334s-27.733333-6.4-36.266667-21.333334l-364.8-682.666666c-14.933333-27.733333 6.4-61.866667 36.266667-61.866667h729.6c29.866667 0 51.2 34.133333 36.266667 61.866667zM635.733333 320l-211.2-213.333333 81.066667 157.866666h-119.466667l53.333334 164.266667H576L501.333333 320h134.4z"  horiz-adv-x="1024" />

    
    <glyph glyph-name="working_load_48" unicode="&#59295;" d="M789.333333 448h-106.666666c0 10.666667-4.266667 21.333333-12.8 29.866667l-81.066667 81.066666C618.666667 582.4 640 618.666667 640 661.333333c0 70.4-57.6 128-128 128s-128-57.6-128-128c0-42.666667 21.333333-78.933333 51.2-102.4l-81.066667-81.066666c-8.533333-8.533333-12.8-19.2-12.8-29.866667h-106.666666c-23.466667 0-42.666667-19.2-42.666667-42.666667v-384c0-23.466667 19.2-42.666667 42.666667-42.666666h554.666666c23.466667 0 42.666667 19.2 42.666667 42.666666V405.333333c0 23.466667-19.2 42.666667-42.666667 42.666667z m-128-253.866667c0-10.666667-8.533333-21.333333-21.333333-21.333333-4.266667 0-23.466667 17.066667-44.8 38.4l-4.266667 4.266667-64-59.733334c-2.133333-2.133333-4.266667-4.266667-6.4-4.266666-8.533333-2.133333-17.066667-2.133333-23.466666 6.4l-46.933334 49.066666-49.066666-44.8c-8.533333-8.533333-21.333333-6.4-29.866667 2.133334l-2.133333 2.133333c-8.533333 8.533333-6.4 21.333333 2.133333 29.866667l64 59.733333 2.133333 2.133333c2.133333 2.133333 4.266667 4.266667 8.533334 4.266667 8.533333 2.133333 17.066667 0 23.466666-6.4l2.133334-2.133333v-2.133334l42.666666-46.933333 44.8 42.666667-8.533333 6.4c-21.333333 21.333333-38.4 40.533333-38.4 44.8-2.133333 10.666667 10.666667 21.333333 21.333333 21.333333h106.666667c10.666667 0 21.333333-10.666667 21.333333-21.333333v-104.533334z"  horiz-adv-x="1024" />

    
    <glyph glyph-name="recyclable_resources_48" unicode="&#59296;" d="M874.666667 637.866667c0 149.333333-725.333333 149.333333-725.333334 0v-8.533334l96-582.4c2.133333-10.666667 12.8-27.733333 25.6-27.733333h484.266667c12.8 0 21.333333 17.066667 23.466667 29.866667l96 576v12.8z m-307.2-119.466667l10.666666 25.6c10.666667 17.066667 25.6 2.133333 25.6 2.133333l49.066667-87.466666c8.533333-17.066667-10.666667-23.466667-10.666667-23.466667l-89.6-21.333333c-32-4.266667-21.333333 19.2-21.333333 19.2l10.666667 25.6C407.466667 512 362.666667 409.6 362.666667 409.6c40.533333 177.066667 204.8 108.8 204.8 108.8z m-108.8-249.6l-10.666667-25.6c-10.666667-17.066667-25.6-4.266667-25.6-4.266667l-51.2 85.333334c-8.533333 19.2 12.8 25.6 12.8 25.6l89.6 23.466666c32 6.4 23.466667-19.2 23.466667-19.2l-10.666667-25.6c134.4-49.066667 174.933333 53.333333 174.933333 53.333334-34.133333-177.066667-202.666667-113.066667-202.666666-113.066667z"  horiz-adv-x="1024" />

    
    <glyph glyph-name="pressure_48" unicode="&#59297;" d="M140.8 526.933333l362.666667-177.066666c2.133333-2.133333 6.4-2.133333 8.533333-2.133334s6.4 0 8.533333 2.133334l362.666667 177.066666c6.4 4.266667 12.8 10.666667 12.8 19.2s-4.266667 14.933333-12.8 19.2l-362.666667 177.066667c-2.133333 2.133333-4.266667 4.266667-8.533333 4.266667-2.133333 0-6.4 0-8.533333-2.133334l-362.666667-177.066666c-8.533333-4.266667-12.8-12.8-12.8-21.333334s4.266667-14.933333 12.8-19.2zM883.2 418.133333l-68.266667 34.133334-294.4-145.066667c-2.133333-2.133333-6.4-2.133333-8.533333-2.133333s-6.4 0-8.533333 2.133333L209.066667 450.133333l-68.266667-34.133333c-8.533333-2.133333-12.8-10.666667-12.8-17.066667s4.266667-14.933333 12.8-19.2l362.666667-177.066666c2.133333-2.133333 6.4-2.133333 8.533333-2.133334s6.4 0 8.533333 2.133334l362.666667 177.066666c6.4 4.266667 12.8 10.666667 12.8 19.2s-4.266667 14.933333-12.8 19.2zM883.2 238.93333299999995l-98.133333 46.933334-264.533334-130.133334c-2.133333-2.133333-6.4-2.133333-8.533333-2.133333s-6.4 0-8.533333 2.133333l-266.666667 132.266667-98.133333-46.933333c-6.4-4.266667-10.666667-12.8-10.666667-21.333334s4.266667-14.933333 12.8-19.2l362.666667-177.066666c2.133333-2.133333 6.4-2.133333 8.533333-2.133334s6.4 0 8.533333 2.133334l362.666667 177.066666c6.4 4.266667 12.8 10.666667 12.8 19.2s-4.266667 17.066667-12.8 19.2z"  horiz-adv-x="1024" />

    
    <glyph glyph-name="remaining_capacity_48" unicode="&#59298;" d="M902.4 59.733333000000016L601.6 524.8V727.466667h21.333333c10.666667 0 21.333333 8.533333 21.333334 21.333333v6.4c0 10.666667-8.533333 21.333333-21.333334 21.333333H398.933333c-10.666667 0-21.333333-8.533333-21.333333-21.333333v-6.4c0-10.666667 8.533333-21.333333 21.333333-21.333333h25.6v-202.666667l-298.666666-462.933333c-6.4-6.4-12.8-23.466667-2.133334-44.8 10.666667-23.466667 46.933333-23.466667 57.6-23.466667H836.266667c4.266667 0 36.266667 0 53.333333 14.933333 19.2 19.2 17.066667 40.533333 12.8 51.2z m-526.933333 160h-91.733334l25.6 42.666667h66.133334c12.8 0 21.333333-8.533333 21.333333-21.333333s-8.533333-21.333333-21.333333-21.333334z m49.066666 85.333334h-91.733333l25.6 42.666666h66.133333c12.8 0 21.333333-8.533333 21.333334-21.333333 0-10.666667-10.666667-21.333333-21.333334-21.333333z m55.466667 87.466666h-91.733333l25.6 42.666667h66.133333c12.8 0 21.333333-8.533333 21.333333-21.333333s-8.533333-21.333333-21.333333-21.333334z"  horiz-adv-x="1024" />

    
    <glyph glyph-name="efficiency_48" unicode="&#59299;" d="M356.266667 185.60000000000002c-6.4 8.533333-12.8 17.066667-19.2 23.466667-6.4 6.4-12.8 12.8-23.466667 19.2-4.266667 4.266667-10.666667 4.266667-17.066667 4.266666-6.4 0-10.666667-4.266667-14.933333-8.533333-21.333333-32-36.266667-57.6-51.2-89.6-4.266667-8.533333-6.4-23.466667 0-29.866667 6.4-6.4 21.333333-4.266667 29.866667 0 32 14.933333 59.733333 29.866667 89.6 51.2 4.266667 4.266667 8.533333 8.533333 8.533333 14.933334 4.266667 4.266667 2.133333 10.666667-2.133333 14.933333zM774.4 422.4c136.533333 187.733333 130.133333 341.333333 125.866667 347.733333-6.4 6.4-164.266667 12.8-349.866667-121.6-91.733333-2.133333-354.133333-34.133333-426.666667-315.733333-2.133333-8.533333 0-14.933333 4.266667-21.333333 4.266667-8.533333 12.8-12.8 19.2-12.8l179.2-14.933334c0-4.266667 0-8.533333-2.133333-14.933333 0-8.533333 2.133333-14.933333 8.533333-23.466667l40.533333-40.533333c6.4-6.4 12.8-8.533333 23.466667-8.533333 4.266667 0 10.666667 0 14.933333 2.133333l14.933334-181.333333c0-8.533333 4.266667-14.933333 10.666666-19.2 4.266667-2.133333 10.666667-4.266667 14.933334-4.266667h6.4c283.733333 76.8 315.733333 334.933333 315.733333 428.8z m-166.4 57.6c-25.6 25.6-25.6 66.133333 0 89.6 25.6 25.6 66.133333 25.6 89.6 0 25.6-25.6 25.6-66.133333 0-89.6s-64-23.466667-89.6 0z"  horiz-adv-x="1024" />

    
    <glyph glyph-name="running_condition_48" unicode="&#59300;" d="M821.333333 311.46666700000003c4.266667 21.333333 8.533333 44.8 8.533334 66.133333s-2.133333 42.666667-6.4 64l64 61.866667c6.4 6.4 8.533333 17.066667 4.266666 23.466666l-53.333333 96c-4.266667 8.533333-12.8 12.8-23.466667 10.666667l-85.333333-19.2c-32 32-72.533333 55.466667-115.2 70.4l-21.333333 83.2c-2.133333 8.533333-10.666667 14.933333-19.2 14.933333l-108.8 2.133334c-8.533333 0-17.066667-6.4-19.2-14.933334l-25.6-83.2c-42.666667-12.8-83.2-34.133333-117.333334-64l-85.333333 23.466667c-8.533333 2.133333-17.066667-2.133333-23.466667-8.533333l-57.6-91.733334c-4.266667-8.533333-4.266667-17.066667 2.133334-23.466666l59.733333-64c-4.266667-21.333333-8.533333-42.666667-8.533333-64 0-23.466667 2.133333-44.8 6.4-66.133334l-64-61.866666c-6.4-6.4-8.533333-17.066667-4.266667-23.466667l53.333333-96c4.266667-8.533333 12.8-12.8 21.333334-10.666667l87.466666 19.2c32-29.866667 70.4-53.333333 110.933334-66.133333l23.466666-87.466667c2.133333-8.533333 10.666667-14.933333 19.2-14.933333l108.8-2.133333c8.533333 0 17.066667 6.4 19.2 14.933333l27.733334 85.333333c42.666667 12.8 81.066667 34.133333 115.2 61.866667l87.466666-23.466667c8.533333-2.133333 17.066667 2.133333 23.466667 8.533334l55.466667 91.733333c4.266667 8.533333 4.266667 17.066667-2.133334 23.466667l-57.6 64z m-140.8 70.4c-2.133333-93.866667-78.933333-166.4-172.8-164.266667-93.866667 2.133333-166.4 78.933333-164.266666 172.8 2.133333 93.866667 78.933333 166.4 172.8 164.266667 93.866667-4.266667 166.4-81.066667 164.266666-172.8zM516.266667 512c-70.4 2.133333-128-53.333333-130.133334-123.733333-2.133333-70.4 53.333333-128 123.733334-130.133334 70.4-2.133333 128 53.333333 130.133333 123.733334 0 70.4-55.466667 128-123.733333 130.133333z"  horiz-adv-x="1024" />

    
    <glyph glyph-name="gold_silver_copper_p_20" unicode="&#58881;" d="M512 844.8c-256 0-460.8-204.8-460.8-460.8s204.8-460.8 460.8-460.8 460.8 204.8 460.8 460.8-204.8 460.8-460.8 460.8z m235.52-419.84l-107.52-107.52 25.6-148.48c0-5.12 0-10.24-5.12-10.24h-5.12-5.12L512 225.27999999999997l-133.12-71.68h-10.24c-5.12 5.12-10.24 10.24-10.24 15.36l25.6 148.48-107.52 107.52c0 5.12-5.12 10.24 0 15.36 0 5.12 5.12 10.24 10.24 10.24l148.48 20.48 66.56 138.24c0 5.12 5.12 5.12 10.24 5.12s10.24-5.12 10.24-5.12l66.56-138.24 148.48-20.48c5.12 0 10.24-5.12 10.24-10.24 5.12-5.12 0-10.24 0-15.36z"  horiz-adv-x="1024" />

    
    <glyph glyph-name="copy" unicode="&#59250;" d="M640 640H192c-32 0-64-32-64-64v-576c0-32 32-64 64-64h448c32 0 64 32 64 64V576c0 32-32 64-64 64z m0-640H192V576h448v-576zM288 384h256c19.2 0 32 12.8 32 32S563.2 448 544 448h-256c-19.2 0-32-12.8-32-32s12.8-32 32-32zM288 256h256c19.2 0 32 12.8 32 32S563.2 320 544 320h-256c-19.2 0-32-12.8-32-32s12.8-32 32-32zM288 128h256c19.2 0 32 12.8 32 32s-12.8 32-32 32h-256c-19.2 0-32-12.8-32-32s12.8-32 32-32zM832 832H384c-32 0-64-32-64-64v-64c0-19.2 12.8-32 32-32S384 684.8 384 704V768h448v-576h-64c-19.2 0-32-12.8-32-32s12.8-32 32-32h64c32 0 64 32 64 64V768c0 32-32 64-64 64z"  horiz-adv-x="1024" />

    
    <glyph glyph-name="alert_16" unicode="&#59314;" d="M512 832C262.4 832 64 633.6 64 384s198.4-448 448-448 448 198.4 448 448-198.4 448-448 448z m0-832c-211.2 0-384 172.8-384 384s172.8 384 384 384 384-172.8 384-384-172.8-384-384-384zM512 633.6c-19.2 0-32-12.8-32-32v-320c0-19.2 12.8-32 32-32s32 12.8 32 32v320c0 19.2-12.8 32-32 32zM512 160m-32 0a32 32 0 1 1 64 0 32 32 0 1 1-64 0Z"  horiz-adv-x="1024" />

    


  </font>
</defs>
</svg>
