<?xml version="1.0" standalone="no"?>
<!DOCTYPE svg PUBLIC "-//W3C//DTD SVG 1.1//EN" "http://www.w3.org/Graphics/SVG/1.1/DTD/svg11.dtd" >
<svg xmlns="http://www.w3.org/2000/svg">
<metadata>Generated by IcoMoon</metadata>
<defs>
<font id="icoPrimary" horiz-adv-x="1024">
<font-face units-per-em="1024" ascent="716.8" descent="-307.2" />
<missing-glyph horiz-adv-x="1024" />
<glyph unicode="&#x20;" horiz-adv-x="174.08" d="" />
<glyph unicode="&#xe900;" glyph-name="global" d="M938.724 192.825c0 235.179-190.663 425.842-425.813 425.842h-0.853c-235.236 0-426.667-191.431-426.667-426.667 0-235.292 191.431-426.667 426.667-426.667 235.292 0 426.667 191.374 426.667 426.667v0.825zM512.91-176.1c-203.435 0-368.953 165.518-368.953 368.953 0 110.080 48.526 209.010 125.241 276.651 0.142-36.352-5.063-60.7-14.706-67.3-9.671-6.713-34.247-36.608-20.907-84.167 7.652-27.364 21.419-38.059 32.484-46.649 7.509-5.803 13.426-10.354 15.616-18.603 1.593-5.831 2.020-10.297 2.418-13.881 1.081-11.89 3.413-14.905 23.893-17.55 20.452-2.645 32.939-13.938 45.056-24.804 3.925-3.527 7.538-6.884 11.492-9.87l10.581-7.595c15.815-10.894 24.946-18.29 18.347-28.16-11.378-17.010-7.623-65.536 18.517-93.212 23.552-24.974 34.19-77.426 34.19-106.695 0-35.243 6.656-96.597 51.484-111.787 6.912-2.361 8.391-0.455 9.017 0.569 1.337 2.304-0.085 4.807-2.702 9.33-4.324 7.595-11.577 20.366-9.7 36.836 2.332 21.248 20.252 46.308 36.096 68.466 7.282 10.098 14.052 19.655 19.342 28.558l7.566 12.231c17.522 27.847 46.876 74.468 39.083 105.5-2.389 9.614-8.192 17.067-17.209 22.187-19.684 11.236-32.683 23.211-44.089 33.735-15.104 13.995-28.132 26.055-50.916 31.033-21.959 4.807-41.586 5.803-54.187 5.803-10.667 0-17.095-0.683-17.465-0.74 0 0-6.116-0.91-12.743-0.91-9.102 0-15.076 1.735-15.559 4.523l-0.74 4.949c-1.877 13.909-5.888 42.837-26.624 42.837l-0.882-0.057-1.82-0.028c-10.837 0-19.826 4.039-23.95 10.837-3.726 6.116-3.271 14.023 1.337 22.955 5.604 10.667 15.474 15.844 30.236 15.844l11.292-0.711 5.888-0.455 2.076 0.057c12.629 0 14.649-6.542 16.213-11.719 0.939-3.015 2.105-6.741 5.973-6.741l2.702 0.626c9.074 3.982 8.334 10.496 7.68 16.185-0.882 7.595-1.877 16.185 13.141 27.79l12.857 10.212c21.646 17.237 38.741 30.862 70.030 42.098 23.296 8.391 33.394 28.018 34.987 43.577 1.65 14.905-3.726 28.103-14.023 34.503-6.4 4.011-13.596 6.030-21.419 6.030-17.038 0-33.337-9.956-40.050-19.371-3.072-4.324-9.813-6.997-17.664-6.997-9.444 0-19.996 4.039-22.329 13.227-1.991 7.822-0.142 16.185 4.978 22.812 6.286 8.050 16.697 12.459 29.241 12.459l1.764-0.028c24.604-0.825 53.049 10.61 56.775 22.187 0.74 2.162 1.223 6.343-3.584 9.813-2.475 1.792-2.105 2.844-2.020 3.186 1.849 5.518 22.613 12.402 32.512 11.605 9.557-0.683 27.307-6.514 34.247-15.246 2.389-3.1 3.328-6.144 2.816-9.387-1.963-12.686-3.868-35.698 6.258-47.502 4.039-4.779 9.529-7.14 16.384-7.14 14.308 0 33.82 14.080 52.708 27.79 13.284 9.643 27.022 19.598 33.906 19.911 6.286 0.37 11.406 2.503 14.308 6.116l2.304 4.693 1.764-1.138c7.68-5.006 15.218-10.24 22.5-15.815l1.394-1.109c15.332-11.804 29.724-24.775 42.98-38.77l1.195-1.252c6.571-6.969 12.857-14.194 18.859-21.646l0.796-1.024c11.719-14.677 22.272-30.236 31.659-46.507l2.389-4.153c4.068-7.253 7.851-14.649 11.406-22.158l3.271-7.253 7.282-17.522 2.247-5.717c-8.42 2.19-14.933 1.678-18.062 1.337-3.442 5.319-15.161 21.988-26.51 24.832-8.277 2.162-24.661-4.693-40.306-11.264-9.017-3.783-17.436-7.31-22.073-8.078-14.222-2.19-35.243-25.287-45.426-41.557-4.807-2.219-27.278-13.625-27.278-36.551l0.028-3.612c-0.142-25.657-0.484-79.189 49.124-89.856 11.748-2.56 23.068-3.755 34.617-3.755 8.875 0 16.356 0.711 22.983 1.308l12.971 0.882c7.026 0 11.406-1.451 15.132-5.006 6.628-6.485 6.428-12.516 6.172-21.646-0.228-8.875-0.512-19.883 5.888-34.731 6.884-15.957 6.741-39.595 6.542-60.444l0.171-20.537c-63.545-111.36-183.381-186.624-320.512-186.624z" />
<glyph unicode="&#xe901;" glyph-name="globalL" d="M534.528 450.162l-3.897 3.641-0.142 0.085c-4.864 3.015-10.382 4.523-16.412 4.523-14.876 0-28.075-9.102-32.683-15.559-5.12-7.282-15.189-11.662-26.908-11.662-13.966 0-29.696 6.713-33.422 21.76l-1.138 8.42c-0.085 8.96 2.788 17.323 8.306 24.32 8.505 10.894 22.187 16.924 38.542 16.924h1.82c20.139-0.626 38.428 23.381 49.408 37.746l2.304 3.157c5.404 7.737 13.625 19.428 32.939 21.191 10.951 0.967 34.332-0.74 44.971-13.995 4.352-5.746 6.030-11.691 5.177-17.92-0.853-5.49-1.394-33.365-0.853-42.155 0.512-8.249 2.361-14.421 5.348-17.92 1.451-1.707 3.783-3.669 8.875-3.669 10.24 0 15.872 4.039 33.963 18.062l1.849 1.422c4.693 3.612 11.378 2.759 14.962-1.906 3.612-4.665 2.759-11.349-1.906-14.962l-1.82-1.422c-18.745-14.535-29.070-22.528-47.019-22.528-10.183 0-18.802 3.868-25.088 11.15-6.087 7.14-9.586 17.38-10.411 30.436-0.569 8.903-0.199 38.827 1.024 46.649l-0.882 1.678c-3.385 4.181-17.038 6.684-26.226 5.86-9.387-0.853-12.942-5.86-17.38-12.203l-2.503-3.356c-13.852-18.148-36.892-47.872-67.1-46.62h-1.451c-9.614 0-17.323-3.1-21.732-8.761-2.503-3.186-3.812-6.912-3.783-10.78l0.484-3.612c0.882-3.556 7.168-5.632 12.743-5.632 5.831 0 8.988 1.963 9.5 2.674 8.761 12.231 28.757 24.548 50.091 24.548 10.126 0 19.484-2.645 27.819-7.822l0.341-0.228c3.044-1.991 5.774-4.437 8.334-7.509l1.991-2.645 4.324-7.31 1.365-3.186c1.422-3.641 2.389-7.339 2.844-10.951 0.683-4.665 0.711-9.301 0.171-14.080-1.877-19.143-14.308-43.435-43.15-53.817-30.549-10.98-46.734-23.865-69.177-41.7l-4.836-3.698-7.879-6.343c-6.144-5.803-7.509-14.535-6.827-20.252 0.626-5.66 0.114-19.484-17.749-27.25-2.361-1.024-4.693-1.536-6.94-1.536-7.964 0-13.483 4.892-16.412 14.535-1.28 4.267-1.337 4.523-6.599 4.523h-2.133l-6.997 0.455-10.695 0.74c-14.364 0-19.172-5.689-21.732-10.638-2.731-5.205-9.159-7.282-14.393-4.523-5.234 2.702-7.253 9.159-4.551 14.393 7.652 14.677 21.333 22.13 40.676 22.13l11.89-0.74 5.803-0.455h2.133c17.55 0 23.467-9.87 25.913-16.299l0.597 2.276c-1.308 11.065 1.479 26.965 13.369 38.172 3.157 2.987 6.514 5.518 9.813 7.964l4.124 3.157c23.268 18.517 41.529 33.024 75.378 45.198 19.513 7.026 27.876 23.211 29.156 36.039 0.398 3.072 0.398 5.888 0 8.476l-0.171 1.963-1.479 4.608-0.626 1.479-2.247 3.954-0.996 1.337zM947.826 192c0-240.668-195.812-436.508-436.508-436.508-240.668 0-436.508 195.812-436.508 436.508s195.84 436.48 436.508 436.48c240.697 0 436.508-195.812 436.508-436.48zM270.905 245.476c-0.37 3.328-0.711 7.111-2.048 11.776-1.28 4.836-4.864 7.794-12.203 13.483-12.146 9.358-28.615 22.044-37.433 53.845-3.499 12.288-4.949 24.69-4.267 36.779l0.142 2.361c1.877 30.208 3.356 54.073 19.058 72.988 22.613 27.335 33.195 55.893 33.308 90.965-103.737-75.52-171.321-197.831-171.321-335.673 0-228.921 186.226-415.175 415.175-415.175 228.921 0 415.175 186.226 415.175 415.175 0 228.921-186.226 415.147-415.175 415.147-82.062 0-158.578-24.036-223.033-65.28 2.987-46.848-8.619-83.627-37.689-118.727-11.264-13.596-12.487-33.337-14.165-60.7l-0.171-2.332c-0.54-9.643 0.626-19.655 3.499-29.753 6.94-25.003 19.058-34.361 29.781-42.61 8.363-6.485 16.754-13.028 19.911-24.946 1.735-6.258 2.276-11.349 2.674-15.047l0.171-1.934c1.138-12.686 1.081-15.189 12.373-14.99h0.484c41.557 0 85.874-40.505 97.024-61.44 4.409-8.249 4.779-15.132 1.138-20.508-8.249-12.402-6.258-57.145 18.148-83.029 27.79-29.497 38.144-87.694 38.144-117.476 0-29.838 4.722-79.275 34.048-99.328-3.812 8.562-7.111 19.883-5.604 33.28l1.877 9.956 0.341 1.024 3.726 10.439 1.394 3.015 3.726 7.936 2.446 4.466 4.124 6.969 1.792 2.987 6.286 9.643 1.394 2.020 10.155 14.507 1.564 2.19 0.597 0.882c7.452 10.354 14.165 19.769 19.285 28.473l5.092 8.249 2.873 4.636c16.1 25.572 46.023 73.045 39.111 100.722-1.792 7.083-5.916 12.402-12.715 16.242-21.646 12.373-35.925 25.657-47.502 36.295-14.962 13.909-26.795 24.86-47.644 29.412-10.78 2.361-18.745 3.612-25.799 4.068-5.888 0.37-10.354 5.433-9.984 11.321s4.978 10.382 11.321 9.984c8.22-0.512 17.152-1.906 29.042-4.523 26.539-5.774 41.643-19.769 57.628-34.588 11.264-10.439 24.007-22.272 43.52-33.422 11.918-6.77 19.627-16.754 22.841-29.639 9.131-36.494-22.699-87.012-41.7-117.191l-2.901-4.636-4.807-7.794c-5.575-9.472-12.572-19.314-20.48-30.265l-0.996-1.451-0.967-1.337-9.614-13.653-0.967-1.451-6.059-9.216-2.076-3.47-3.328-5.604-2.816-5.092-2.588-5.547-0.711-1.508-0.654-1.394-3.186-8.932-0.199-0.654-1.195-6.343c-1.536-13.682 4.665-24.462 8.761-31.602l3.726-7.452c1.934-5.831 0.54-10.126-0.967-12.743-1.564-2.93-5.205-7.14-12.686-7.14-2.617 0-5.689 0.512-9.33 1.792-52.594 17.749-60.473 86.244-60.473 125.525 0 27.648-10.268 79.445-32.341 102.855-28.359 30.094-35.271 82.404-21.902 106.951-4.892 11.918-43.947 51.342-78.848 51.342h-0.825c-30.208 0-32.284 23.211-33.308 34.389l-0.199 1.508z" />
<glyph unicode="&#xe902;" glyph-name="locationminus" d="M555.748-64c0 111.388 85.874 202.98 194.873 212.395 25.458 45.568 40.050 97.991 40.050 153.828 0 175.417-143.047 317.696-319.63 317.696s-319.716-142.308-319.716-317.696c0-95.090 42.098-180.338 108.686-238.564 0 0 48.896-45.483 72.42-85.191h0.171l120.775-203.207c3.129-6.542 9.671-11.207 17.664-11.207 7.765 0 14.507 4.636 17.692 11.264l71.054 119.694c-2.588 13.255-4.039 26.965-4.039 40.988zM471.040 99.527h-0.057c-114.005 0-206.62 91.989-206.62 205.397 0 113.522 92.615 205.483 206.62 205.483h0.057c21.362 0 42.012-3.243 61.412-9.244 6.457-1.991 12.8-4.324 18.972-6.912 49.436-20.793 89.060-60.16 109.995-109.312 10.468-24.576 16.242-51.57 16.242-79.929 0-26.482-5.205-51.684-14.393-74.894l-4.722-10.951c-32.711-70.571-104.334-119.637-187.506-119.637zM769.081 106.667c-94.236 0-170.667-76.43-170.667-170.667 0-94.265 76.43-170.667 170.667-170.667 94.265 0 170.667 76.402 170.667 170.667 0 94.236-76.402 170.667-170.667 170.667zM687.673-92.444c-15.701 0-28.444 12.743-28.444 28.444s12.743 28.444 28.444 28.444h162.816c15.701 0 28.444-12.743 28.444-28.444s-12.743-28.444-28.444-28.444h-162.816z" />
<glyph unicode="&#xe903;" glyph-name="locationminusL" d="M869.319-64c0-5.888-4.779-10.667-10.667-10.667h-180.878c-5.888 0-10.667 4.779-10.667 10.667s4.779 10.667 10.667 10.667h180.878c5.888 0 10.667-4.779 10.667-10.667zM729.543 301.909c0 119.125-97.479 216.064-217.316 216.064-9.273 0-18.603-0.597-27.733-1.764-5.86-0.74-9.984-6.087-9.244-11.918 0.74-5.86 6.144-9.984 11.918-9.244 8.249 1.052 16.668 1.593 25.031 1.593 108.060 0 195.982-87.353 195.982-194.731 0-107.406-87.922-194.816-195.982-194.816-92.644 0-173.369 65.422-191.972 155.534-1.195 5.774-6.855 9.472-12.601 8.277-5.774-1.195-9.472-6.827-8.277-12.601 20.651-99.982 110.165-172.572 212.878-172.572 119.836 0.028 217.316 96.996 217.316 216.178zM786.347 116.395c35.726 53.39 56.206 117.419 56.206 182.699 0 181.077-148.167 328.363-330.297 328.363-182.187 0-330.382-147.314-330.382-328.363 0-94.293 40.932-184.178 112.1-246.386 0.484-0.455 48.043-44.914 70.514-82.83l1.024-1.451 119.467-200.932c5.092-10.638 15.531-17.237 27.25-17.237 11.492 0 22.215 6.77 26.88 16.469l60.729 102.286c26.709-66.901 92.046-114.375 168.363-114.375 99.982 0 181.333 81.351 181.333 181.333 0 93.895-71.68 171.321-163.186 180.423zM591.332-103.509l-70.997-119.609c-3.129-6.457-12.658-7.282-16.583 0.74l-120.775 203.207-1.052 1.451c-24.32 40.192-71.452 84.196-73.7 86.3-66.759 58.368-105.045 142.421-105.045 230.542 0 169.301 138.638 307.029 309.049 307.029 170.354 0 308.964-137.728 308.964-307.029 0-65.764-22.215-129.906-60.814-182.187-96.341-4.153-173.511-83.598-173.511-180.935 0-13.596 1.621-26.766 4.466-39.509zM768.199-224c-88.235 0-160 71.765-160 160 0 88.206 71.765 160 160 160s160-71.794 160-160c0-88.235-71.765-160-160-160z" />
<glyph unicode="&#xe904;" glyph-name="locationplus" d="M770.332 106.667c94.236 0 170.667-76.43 170.667-170.667 0-94.265-76.43-170.667-170.667-170.667s-170.667 76.402-170.667 170.667c0 94.236 76.402 170.667 170.667 170.667zM688.896-92.444h52.964v-52.964c0-15.701 12.743-28.444 28.444-28.444s28.444 12.743 28.444 28.444v52.964h52.935c15.701 0 28.444 12.743 28.444 28.444s-12.743 28.444-28.444 28.444h-52.935v52.964c0 15.701-12.743 28.444-28.444 28.444s-28.444-12.743-28.444-28.444v-52.964h-52.964c-15.701 0-28.444-12.743-28.444-28.444 0-15.73 12.743-28.444 28.444-28.444zM556.999-64c0 111.388 85.874 202.98 194.873 212.395 25.458 45.568 40.050 97.991 40.050 153.828 0 175.417-143.047 317.696-319.63 317.696-176.612 0-319.716-142.279-319.716-317.696 0-95.090 42.098-180.338 108.686-238.564 0 0 48.896-45.483 72.42-85.191h0.171l120.775-203.207c3.129-6.542 9.671-11.207 17.664-11.207 7.765 0 14.507 4.636 17.692 11.264l71.054 119.694c-2.588 13.255-4.039 26.965-4.039 40.988zM472.292 99.527h-0.057c-114.005 0-206.62 91.989-206.62 205.397 0 113.522 92.615 205.483 206.62 205.483h0.057c21.362 0 41.984-3.243 61.412-9.244 6.457-1.991 12.8-4.324 18.972-6.912 49.436-20.793 89.060-60.16 109.995-109.312 10.468-24.576 16.242-51.57 16.242-79.929 0-26.482-5.205-51.684-14.393-74.923l-4.722-10.951c-32.74-70.542-104.334-119.609-187.506-119.609z" />
<glyph unicode="&#xe905;" glyph-name="locationplusL" d="M730.652 301.909c0 119.125-97.479 216.064-217.316 216.064-9.273 0-18.603-0.597-27.733-1.764-5.86-0.74-9.984-6.087-9.244-11.918 0.74-5.86 6.144-9.984 11.918-9.244 8.249 1.052 16.668 1.593 25.031 1.593 108.060 0 195.982-87.353 195.982-194.731 0-107.406-87.922-194.816-195.982-194.816-92.644 0-173.369 65.422-192 155.534-1.195 5.774-6.855 9.472-12.601 8.277-5.774-1.195-9.472-6.827-8.277-12.601 20.651-99.982 110.165-172.572 212.878-172.572 119.836 0.028 217.344 96.996 217.344 216.178zM787.428 116.395c35.726 53.39 56.206 117.419 56.206 182.699 0 181.077-148.196 328.363-330.297 328.363-182.187 0-330.382-147.314-330.382-328.363 0-94.293 40.96-184.178 112.1-246.386 0.484-0.455 48.043-44.914 70.514-82.83l1.024-1.451 119.467-200.932c5.092-10.638 15.531-17.237 27.25-17.237 11.492 0 22.215 6.77 26.88 16.469l60.729 102.286c26.709-66.901 92.046-114.375 168.363-114.375 99.982 0 181.333 81.351 181.333 181.333 0.028 93.895-71.68 171.321-163.186 180.423zM592.441-103.509l-70.997-119.609c-3.129-6.457-12.658-7.282-16.583 0.74l-120.775 203.207-1.052 1.451c-24.32 40.192-71.452 84.196-73.7 86.3-66.759 58.368-105.045 142.421-105.045 230.542 0 169.301 138.638 307.029 309.049 307.029 170.354 0 308.964-137.728 308.964-307.029 0-65.764-22.215-129.906-60.814-182.187-96.341-4.153-173.511-83.598-173.511-180.935 0-13.596 1.621-26.766 4.466-39.509zM769.308-224c-88.235 0-160 71.765-160 160 0 88.206 71.765 160 160 160s160-71.794 160-160c0-88.235-71.765-160-160-160zM870.286-64c0-5.888-4.779-10.667-10.667-10.667h-79.758v-79.787c0-5.888-4.779-10.667-10.667-10.667s-10.667 4.779-10.667 10.667v79.787h-79.787c-5.888 0-10.667 4.779-10.667 10.667s4.779 10.667 10.667 10.667h79.787v79.787c0 5.888 4.779 10.667 10.667 10.667s10.667-4.779 10.667-10.667v-79.787h79.758c5.888 0 10.667-4.779 10.667-10.667z" />
<glyph unicode="&#xe906;" glyph-name="map" d="M872.448 616.448h-720.896c-33.308 0-60.416-27.108-60.416-60.416v-720.924c0-33.308 27.108-60.416 60.416-60.416h720.924c33.308 0 60.416 27.108 60.416 60.416v720.924c-0.028 33.308-27.108 60.416-60.444 60.416zM142.308 556.032c0 5.063 4.153 9.216 9.216 9.216h192.427v-83.172c-73.785-10.354-130.617-73.216-130.617-149.362 0-21.703 4.722-42.297 13.028-60.956h-84.053v284.274zM343.95-174.108h-192.398c-5.063 0-9.216 4.153-9.216 9.216v126.208h201.643v-135.424zM142.308 3.982v225.109h112.583l10.098-9.785s23.239-21.618 34.418-40.476h0.085l44.43-74.78v-100.068h-201.614zM707.214-174.108h-320.569v135.424h320.569v-135.424zM707.214 3.982h-320.569v100.011l44.459 74.894c11.236 18.83 34.503 40.448 34.503 40.448l10.098 9.785h231.509v-225.138zM707.214 271.758h-202.98c8.306 18.66 13.028 39.225 13.028 60.956 0 76.174-56.804 139.036-130.617 149.362v83.172h320.569v-293.49zM881.692-164.892c0-5.063-4.153-9.216-9.216-9.216h-122.596v135.424h131.812v-126.208zM881.692 3.982h-131.812v225.109h131.812v-225.109zM881.692 271.758h-131.812v293.49h122.596c5.063 0 9.216-4.153 9.216-9.216v-284.274zM447.744 333.824c0-45.54-36.921-82.46-82.46-82.46s-82.46 36.921-82.46 82.46 36.921 82.46 82.46 82.46 82.46-36.921 82.46-82.46z" />
<glyph unicode="&#xe907;" glyph-name="mapL" d="M865.536 632.917h-707.044c-34.133 0-61.895-27.762-61.895-61.867v-634.709c0-5.888 4.779-10.667 10.667-10.667s10.667 4.779 10.667 10.667v51.57h243.94v-176.498h-235.349c-5.888 0-10.667-4.779-10.667-10.667s4.779-10.667 10.667-10.667h739.015c34.105 0 61.867 27.762 61.867 61.867v719.104c0.028 34.105-27.733 61.867-61.867 61.867zM117.902 571.051c0 22.357 18.204 40.533 40.562 40.533h203.378v-124.331c-82.859-5.916-148.508-74.667-148.508-158.521 0-17.806 3.1-35.243 8.789-51.712h-104.22v294.030zM361.842 9.244h-243.94v246.443h113.579c9.017-17.323 21.049-33.109 36.068-46.222 0.199-0.199 21.845-20.452 31.943-37.433l0.683-1.024 55.381-93.127c1.479-3.072 3.698-5.518 6.315-7.396v-61.241zM317.924 182.926l-0.74 1.081c-11.861 19.371-34.162 40.192-35.356 41.301-29.952 26.197-47.132 63.915-47.132 103.452 0 75.975 62.236 137.785 138.724 137.785s138.695-61.81 138.695-137.785c0-39.566-17.18-77.255-47.36-103.652-0.996-0.91-24.149-22.5-35.84-42.126l-55.467-93.497-55.524 93.44zM725.106-188.587h-341.931v176.498h341.931v-176.498zM725.106 9.244h-341.931v60.046c3.356 1.877 6.116 4.58 7.652 7.794l56.377 94.948c10.098 16.953 31.801 37.177 31.801 37.177 15.104 13.227 27.221 29.070 36.267 46.45h209.806v-246.414zM725.106 277.020h-200.476c5.717 16.469 8.789 33.906 8.789 51.712 0 84.452-66.56 153.543-150.244 158.606v124.245h341.931v-334.564zM906.098-148.053c0-22.357-18.176-40.533-40.533-40.533h-119.125v176.498h159.659v-135.964zM906.098 9.244h-159.659v246.443h159.659v-246.443zM906.098 277.020h-159.659v334.564h119.125c22.357 0 40.533-18.176 40.533-40.533v-294.030zM373.504 232.988c-46.080 0-86.329 32.597-95.573 77.511-1.195 5.774 2.532 11.406 8.306 12.601 5.717 1.166 11.406-2.532 12.601-8.306 7.282-35.044 38.684-60.473 74.695-60.473 42.012 0 76.231 33.963 76.231 75.748 0 41.728-34.19 75.719-76.231 75.719l-9.785-0.626c-5.831-0.654-11.179 3.442-11.89 9.301s3.442 11.179 9.301 11.89c4.039 0.484 8.192 0.768 12.373 0.768 53.788 0 97.564-43.548 97.564-97.052-0.057-53.532-43.804-97.081-97.593-97.081z" />
<glyph unicode="&#xe908;" glyph-name="pinpoint" d="M512.057 619.918c-176.583 0-319.716-142.279-319.716-317.696 0-95.090 42.098-180.338 108.686-238.564 0 0 48.896-45.483 72.42-85.191h0.171l120.775-203.207c3.129-6.542 9.671-11.207 17.664-11.207 7.794 0 14.507 4.636 17.692 11.264l120.69 203.264c23.609 39.595 72.59 85.077 72.59 85.077 66.645 58.226 108.658 143.502 108.658 238.564-0.028 175.417-143.047 317.696-319.63 317.696zM704.284 230.087l-4.722-10.951c-32.74-70.571-104.363-119.609-187.534-119.609h-0.028c-114.005 0-206.62 91.989-206.62 205.397 0 113.522 92.615 205.483 206.62 205.483h0.057c21.362 0 42.012-3.243 61.412-9.244 6.457-1.991 12.8-4.324 18.972-6.912 49.436-20.793 89.060-60.16 109.995-109.312 10.468-24.576 16.242-51.57 16.242-79.929 0-26.482-5.205-51.684-14.393-74.923z" />
<glyph unicode="&#xe909;" glyph-name="pinpointL" d="M729.344 302.62c0-119.182-97.479-216.149-217.287-216.149-102.713 0-192.256 72.59-212.878 172.572-1.195 5.774 2.503 11.406 8.306 12.601 5.689 1.166 11.406-2.503 12.601-8.277 18.603-90.14 99.356-155.563 192-155.563 108.060 0 195.954 87.381 195.954 194.816 0 107.378-87.893 194.731-195.954 194.731-8.363 0-16.811-0.54-25.060-1.593-5.945-0.74-11.207 3.385-11.947 9.244s3.385 11.179 9.244 11.918c9.131 1.166 18.46 1.735 27.733 1.735 119.808 0.028 217.287-96.882 217.287-216.036zM842.354 299.833c0-94.35-40.932-184.263-112.299-246.585-0.228-0.228-47.9-44.715-70.428-82.489l-120.69-203.264c-4.636-9.7-15.36-16.469-26.852-16.469-11.719 0-22.187 6.599-27.25 17.237l-119.495 200.96-1.052 1.451c-22.471 37.888-70.030 82.375-70.514 82.802-71.14 62.208-112.071 152.064-112.071 246.386 0 181.077 148.196 328.363 330.382 328.363 182.101 0 330.268-147.314 330.268-328.391zM821.020 299.833c0 169.301-138.61 307.029-308.964 307.029-170.411 0-309.049-137.728-309.049-307.029 0-88.149 38.286-172.174 105.045-230.542 2.247-2.076 49.38-46.137 73.7-86.3l1.052-1.451 120.775-203.236c3.925-7.993 13.483-7.196 16.583-0.74l121.116 204.060c24.149 40.448 72.448 85.532 74.496 87.438 66.958 58.539 105.244 142.564 105.244 230.77z" />
<glyph unicode="&#xe90a;" glyph-name="pointsofinterest" d="M643.954 310.044h-357.689c-11.776 0-21.333 9.557-21.333 21.333s9.557 21.333 21.333 21.333h357.689c11.776 0 21.333-9.557 21.333-21.333s-9.557-21.333-21.333-21.333zM286.265 244.764c-11.776 0-21.333-9.557-21.333-21.333s9.557-21.333 21.333-21.333h227.584c9.5 15.474 20.594 29.867 33.337 42.667h-260.921zM286.265 136.818c-11.776 0-21.333-9.557-21.333-21.333s9.557-21.333 21.333-21.333h193.792c0.825 14.62 2.958 28.871 6.372 42.667h-200.164zM606.009-154.88l-12.402 20.907-5.433 7.993h-371.94c-7.822 0-14.222 6.4-14.222 14.222l-0.028 645.404c0 7.822 6.4 14.222 14.222 14.222h394.325v-107.065c0-5.888 4.779-10.667 10.667-10.667h107.065v-117.106c23.666-1.508 46.308-6.514 67.556-14.535v150.272c0 14.194-7.566 32.455-17.607 42.496l-106.553 106.553c-10.041 10.041-28.302 17.607-42.496 17.607h-443.278c-28.388 0-51.484-22.5-51.484-50.148l0.028-708.722c0-27.648 23.040-50.119 51.456-50.119h443.25l-22.983 38.656h-0.142zM904.164 81.266c0-56.832-25.116-107.776-64.939-142.564 0 0-29.269-27.164-43.378-50.83l-72.135-121.486c-1.906-3.954-5.916-6.713-10.581-6.713-4.779 0-8.676 2.759-10.553 6.684l-72.164 121.429h-0.085c-14.080 23.723-43.292 50.916-43.292 50.916-39.794 34.788-64.939 85.76-64.939 142.564 0 104.818 85.532 189.867 191.061 189.867s191.004-85.049 191.004-189.867zM827.164 82.66c0 62.976-51.058 114.034-114.034 114.034s-114.034-51.058-114.034-114.034 51.058-114.034 114.034-114.034c62.976 0 114.034 51.058 114.034 114.034z" />
<glyph unicode="&#xe90b;" glyph-name="pointsofinterestL" d="M691.513 371.513h-453.12c-5.888 0-10.667 4.779-10.667 10.667s4.779 10.667 10.667 10.667h453.12c5.888 0 10.667-4.779 10.667-10.667s-4.779-10.667-10.667-10.667zM670.009 266.524c-6.172 0-12.459-0.398-18.603-1.166-5.86-0.74-9.984-6.059-9.244-11.918s6.002-10.041 11.918-9.244c5.262 0.683 10.638 0.996 15.929 0.996 68.665 0 124.501-55.495 124.501-123.705s-55.836-123.733-124.501-123.733c-58.852 0-110.137 41.557-121.998 98.816-1.195 5.774-6.912 9.444-12.601 8.306-5.774-1.195-9.472-6.827-8.277-12.601 13.852-67.129 73.956-115.826 142.876-115.826 80.412 0 145.835 65.081 145.835 145.067 0 79.957-65.422 145.010-145.835 145.010zM889.742 119.666c0-62.777-27.221-122.596-74.724-164.096-0.057-0.057-30.862-28.843-45.34-53.106l-78.933-132.921c-3.499-7.339-11.804-12.572-20.736-12.572-9.102 0-17.209 5.12-21.163 13.369l-21.476 36.124h-441.657c-5.888 0-10.667 4.779-10.667 10.667s4.779 10.667 10.667 10.667h428.942l-43.662 73.444-0.853 1.223c-14.421 24.348-45.141 53.049-45.454 53.362-47.246 41.301-74.496 101.12-74.496 163.868 0 24.462 4.238 47.9 11.719 69.888h-223.516c-5.888 0-10.667 4.779-10.667 10.667s4.779 10.667 10.667 10.667h232.107c12.316 26.539 29.81 50.119 51.228 69.632h-283.335c-5.888 0-10.667 4.779-10.667 10.667s4.779 10.667 10.667 10.667l310.158-0.199c34.816 23.040 76.572 36.523 121.429 36.523 37.717 0 73.244-9.529 104.277-26.226l0.028 136.818c0 2.873-0.796 6.315-1.877 9.813h-122.994c-5.888 0-10.667 4.779-10.667 10.667v122.937c-3.499 1.081-6.94 1.877-9.813 1.877h-443.221c-16.612 0-30.123-12.914-30.123-28.814l0.057-553.984c0-5.888-4.779-10.667-10.667-10.667s-10.667 4.779-10.667 10.667l-0.057 553.984c0 27.648 23.097 50.148 51.456 50.148h443.278c14.194 0 32.484-7.566 42.496-17.607l106.553-106.524c10.041-10.041 17.607-28.302 17.607-42.496l-0.028-147.996-0.37-1.792c57.031-39.538 94.492-105.131 94.492-179.342zM759.239 479.915l-99.1 99.1v-99.1h99.1zM868.409 119.666c0 108.715-89.003 197.177-198.428 197.177-109.454 0-198.485-88.462-198.485-197.177 0-56.604 24.576-110.535 67.47-148.025 1.564-1.451 32.54-30.407 48.754-57.031l0.882-1.252 79.019-132.949c1.252-2.418 3.669-2.105 4.352-0.74l79.388 133.746c16.071 26.937 48.043 56.775 49.38 58.027 43.093 37.632 67.669 91.591 67.669 148.224z" />
<glyph unicode="&#xe90c;" glyph-name="position" d="M512 618.667c-235.634 0-426.667-191.033-426.667-426.667s191.033-426.667 426.667-426.667 426.667 191.033 426.667 426.667-191.033 426.667-426.667 426.667zM562.489-145.579v117.988c0 11.264-9.216 20.48-20.48 20.48h-60.018c-11.264 0-20.48-9.216-20.48-20.48v-117.988c-147.883 22.016-265.074 139.207-287.090 287.090h126.151c11.264 0 20.48 9.216 20.48 20.48v60.018c0 11.264-9.216 20.48-20.48 20.48h-126.151c22.016 147.883 139.207 265.074 287.090 287.090v-117.988c0-11.264 9.216-20.48 20.48-20.48h60.018c11.264 0 20.48 9.216 20.48 20.48v117.959c147.883-22.016 265.074-139.207 287.090-287.090h-109.824c-11.264 0-20.48-9.216-20.48-20.48v-60.018c0-11.264 9.216-20.48 20.48-20.48h109.824c-22.016-147.854-139.207-265.045-287.090-287.061z" />
<glyph unicode="&#xe90d;" glyph-name="positionL" d="M512 629.333c-241.152 0-437.333-196.21-437.333-437.333 0-241.152 196.181-437.333 437.333-437.333s437.333 196.181 437.333 437.333c0 241.124-196.181 437.333-437.333 437.333zM522.667-223.744v159.744c0 5.888-4.779 10.667-10.667 10.667s-10.667-4.779-10.667-10.667v-159.716c-220.9 5.604-399.445 184.149-405.049 405.049h159.716c5.888 0 10.667 4.779 10.667 10.667s-4.779 10.667-10.667 10.667h-159.716c5.604 220.9 184.149 399.445 405.049 405.049v-159.716c0-5.888 4.779-10.667 10.667-10.667s10.667 4.779 10.667 10.667v159.716c220.9-5.604 399.445-184.149 405.077-405.049h-159.744c-5.888 0-10.667-4.779-10.667-10.667s4.779-10.667 10.667-10.667h159.744c-5.632-220.928-184.178-399.474-405.077-405.077z" />
<glyph unicode="&#xe90e;" glyph-name="unitedstates" d="M174.393 397.17h392.932c17.18 0 25.628-12.828 18.773-28.501s-18.745-30.436-8.050-28.188l72.476 5.86c11.236 0.882 19.2-7.509 17.721-18.66l-6.713-50.347c-1.479-11.15 3.271-19.456 10.581-18.404s18.46 9.5 24.775 18.83l9.045 13.369c6.315 9.33 18.233 10.667 26.425 2.958l4.039-3.783c8.22-7.708 22.585-8.903 31.943-2.645l4.693 3.129c9.358 6.258 20.764 19.797 25.344 30.094l13.54 30.436c4.58 10.297 17.351 20.48 28.444 22.642l17.493 3.413c11.065 2.162 23.95 12.316 28.558 22.556l9.244 20.338c4.665 10.24 15.872 13.141 24.917 6.457l4.779-3.556c9.017-6.713 15.616-21.39 14.592-32.597l-5.774-63.545c-1.024-11.207-7.908-27.335-15.332-35.812l-39.595-45.34c-7.396-8.476-10.695-24.206-7.339-34.958l5.945-18.972c3.385-10.752 1.963-27.762-3.129-37.803l-47.701-93.924c-5.063-10.041-6.514-27.079-3.1-37.803l19.57-61.724c3.413-10.724-0.597-21.732-8.903-24.405s-21.532 1.678-29.468 9.7l-45.028 45.625c-7.908 8.021-23.268 12.089-34.105 9.074l-116.139-32.484c-10.866-3.044-25.429-12.743-32.398-21.618l-40.306-51.172c-6.969-8.875-19.598-10.012-28.046-2.588l-52.935 46.45c-8.476 7.424-23.609 9.33-33.65 4.21l-5.575-2.844c-10.041-5.12-23.58-1.792-30.094 7.424l-16.384 23.125c-6.514 9.188-20.85 18.66-31.858 21.049l-146.688 31.943c-11.008 2.389-27.108 10.24-35.726 17.465l-3.84 3.243c-8.676 7.225-20.139 21.22-25.486 31.118l-45.881 84.651c-5.348 9.899-6.315 26.567-2.133 37.006l5.831 14.535c4.21 10.439 7.623 20.281 7.68 21.874l1.109 23.324 1.195 93.468c0 8.448 4.21 10.894 11.321 9.557l26.453-4.665c6.457-1.337 8.22 9.33 6.457 19.115-1.792 9.785-1.223 22.3 35.499 22.3z" />
<glyph unicode="&#xe90f;" glyph-name="unitedstatesL" d="M954.453 389.006l-5.774-63.545c-1.195-13.369-9.045-31.772-17.92-41.87l-39.623-45.34c-4.978-5.717-7.452-17.493-5.177-24.747l5.945-18.972c4.238-13.511 2.674-33.195-3.812-45.824l-47.701-93.924c-3.812-7.566-4.978-21.732-2.446-29.724l19.57-61.753c5.177-16.327-1.877-33.28-15.701-37.774-12.231-3.954-29.582 1.365-40.391 12.345l-45.028 45.625c-5.205 5.319-16.498 8.277-23.609 6.315l-116.139-32.484c-8.761-2.446-21.305-10.809-26.88-17.948l-40.306-51.172c-5.177-6.599-12.572-10.667-20.85-11.406l-2.788-0.142c-7.282 0-14.222 2.645-19.826 7.566l-52.878 46.45c-5.234 4.58-15.588 5.86-21.817 2.731l-5.575-2.844c-14.848-7.566-33.991-2.844-43.662 10.752l-16.384 23.125c-4.921 6.997-17.067 14.99-25.401 16.782l-146.745 31.915c-12.686 2.759-30.407 11.406-40.334 19.712l-3.868 3.271c-9.7 8.050-22.016 23.125-27.989 34.219l-45.852 84.622c-6.94 12.772-8.078 32.569-2.674 46.052l5.831 14.564c4.267 10.581 6.741 18.005 7.054 19.484l0.996 22.3 3.612 68.238c0.796 14.99 11.207 31.858 24.235 39.282l19.285 11.008c5.177 2.93 11.605 1.138 14.564-3.982 2.93-5.12 1.138-11.634-3.982-14.535l-19.314-11.008c-6.656-3.812-13.113-14.222-13.511-21.874l-3.612-68.238-1.109-22.955c-0.085-3.356-2.93-11.975-8.448-25.685l-5.831-14.535c-3.015-7.509-2.19-20.85 1.593-27.961l45.881-84.651c4.722-8.789 15.218-21.618 22.926-27.989l3.897-3.271c7.282-6.087 21.845-13.198 31.147-15.218l146.773-31.886c13.71-2.987 30.208-13.852 38.372-25.316l16.327-23.125c3.499-4.892 11.207-6.798 16.555-4.068l5.575 2.844c13.852 7.054 33.82 4.551 45.511-5.689l52.935-46.478c1.877-1.65 4.295-2.446 6.571-2.219 2.361 0.199 4.523 1.422 6.030 3.385l40.306 51.172c8.277 10.553 24.946 21.675 37.888 25.287l116.139 32.455c14.677 4.124 33.877-0.967 44.572-11.861l45.028-45.625c5.831-5.945 14.99-8.22 18.574-7.054 1.735 0.569 3.84 5.205 1.991 11.036l-19.57 61.724c-4.238 13.454-2.645 33.166 3.726 45.824l47.73 93.952c3.812 7.538 4.978 21.732 2.446 29.781l-5.973 18.972c-4.523 14.393-0.455 33.82 9.472 45.17l39.652 45.34c5.916 6.827 11.861 20.736 12.686 29.753l5.774 63.545c0.683 7.538-4.238 18.546-10.325 23.097l-4.779 3.556c-1.735 1.28-3.556 1.792-5.092 1.365-1.536-0.398-2.873-1.707-3.755-3.669l-9.244-20.366c-6.059-13.454-21.646-25.771-36.238-28.615l-17.493-3.413c-7.68-1.479-17.55-9.358-20.736-16.498l-13.54-30.436c-5.376-12.089-18.148-27.278-29.156-34.617l-4.665-3.129c-13.54-9.017-33.394-7.367-45.198 3.726l-4.011 3.783c-1.678 1.564-3.698 2.276-5.433 2.105-1.849-0.199-3.584-1.365-4.864-3.243l-9.045-13.369c-7.026-10.382-20.338-21.732-32.114-23.41-5.888-0.825-11.52 1.024-15.787 5.262-5.717 5.66-8.22 14.82-6.855 25.116l6.713 50.347c0.284 2.133-0.171 3.954-1.252 5.092-1.109 1.166-2.987 1.707-5.035 1.536l-72.476-5.86c-7.14-1.593-11.463 2.304-13.312 4.75-5.547 7.424-1.109 15.616 4.523 26.027l6.201 12.316c1.792 4.096 1.963 7.737 0.484 9.984-1.508 2.276-4.949 3.584-9.5 3.584h-334.62c-5.888 0-10.667 4.779-10.667 10.667s4.779 10.667 10.667 10.667h334.677c11.861 0 21.845-4.836 27.364-13.227 5.49-8.391 5.916-19.399 1.195-30.208l-6.116-12.26 59.904 4.836c8.676 0.626 16.697-2.276 22.215-8.107 5.547-5.831 8.050-14.080 6.912-22.585l-6.713-50.318 0.228-5.888c3.897 1.65 11.065 6.855 15.73 13.739l9.045 13.369c4.779 7.054 12.117 11.605 20.196 12.487 8.107 0.91 16.213-1.934 22.386-7.765l4.011-3.755c4.608-4.295 13.511-5.035 18.745-1.536l4.665 3.129c7.708 5.148 17.778 17.095 21.532 25.543l13.54 30.436c6.059 13.568 21.589 25.941 36.153 28.786l17.493 3.413c7.708 1.508 17.721 9.358 20.878 16.469l9.273 20.395c3.556 7.822 10.041 13.483 17.835 15.474 7.765 2.020 16.213 0.228 23.125-4.892l4.807-3.556c12.117-9.131 20.224-27.25 18.859-42.24z" />
<glyph unicode="&#xe910;" glyph-name="addgeofence" d="M512 610.133c-139.378 0-253.156-113.778-253.156-253.156 0-76.8 34.133-142.222 85.333-190.578 0 0 39.822-36.978 56.889-68.267l96.711-162.133c2.844-5.689 8.533-8.533 14.222-8.533s11.378 2.844 14.222 8.533l96.711 162.133c19.911 31.289 56.889 68.267 56.889 68.267 54.044 45.511 85.333 113.778 85.333 190.578 0 142.222-113.778 253.156-253.156 253.156zM620.089 322.844h-71.111v-71.111c0-19.911-17.067-36.978-36.978-36.978s-36.978 17.067-36.978 36.978v71.111h-71.111c-19.911 0-36.978 17.067-36.978 36.978s17.067 36.978 36.978 36.978h71.111v71.111c0 19.911 17.067 36.978 36.978 36.978s36.978-17.067 36.978-36.978v-71.111h71.111c19.911 0 36.978-17.067 36.978-36.978 0-22.756-17.067-36.978-36.978-36.978zM950.044-49.778c0 56.889-62.578 102.4-173.511 133.689-14.222 2.844-31.289-5.689-34.133-19.911s5.689-31.289 19.911-34.133c91.022-22.756 133.689-56.889 133.689-76.8 0-36.978-130.844-105.244-381.156-105.244s-381.156 68.267-381.156 105.244c0 19.911 39.822 54.044 130.844 76.8 14.222 2.844 25.6 19.911 19.911 34.133-2.844 14.222-19.911 25.6-34.133 19.911-110.933-28.444-173.511-76.8-173.511-133.689 0-108.089 219.022-162.133 438.044-162.133 216.178-2.844 435.2 54.044 435.2 162.133z" />
<glyph unicode="&#xe911;" glyph-name="editlocation" d="M512 618.667c-176.356 0-318.578-142.222-318.578-315.733 0-93.867 42.667-179.2 108.089-238.933 0 0 48.356-45.511 71.111-85.333l119.467-201.956c2.844-5.689 8.533-11.378 17.067-11.378s14.222 5.689 17.067 11.378l119.467 201.956c22.756 39.822 73.956 85.333 73.956 85.333 65.422 56.889 108.089 142.222 108.089 238.933 2.844 173.511-139.378 315.733-315.733 315.733zM486.4 200.533c-5.689-5.689-11.378-8.533-14.222-11.378l-102.4-42.667c-5.689-2.844-11.378 5.689-8.533 8.533l42.667 102.4c2.844 2.844 5.689 8.533 8.533 14.222v2.844l145.067 145.067 73.956-73.956-145.067-145.067zM674.133 388.267l-19.911-19.911-73.956 73.956 19.911 19.911c14.222 14.222 36.978 14.222 51.2 0l22.756-22.756c14.222-14.222 14.222-36.978 0-51.2z" />
<glyph unicode="&#xe912;" glyph-name="editmap" d="M463.644 419.556l88.178-88.178-170.667-170.667c-5.689-2.844-11.378-8.533-17.067-11.378l-119.467-51.2c-5.689-2.844-14.222 5.689-11.378 11.378l51.2 119.467c2.844 5.689 5.689 11.378 11.378 14.222l2.844 2.844 164.978 173.511zM597.333 439.467l-25.6 25.6c-17.067 17.067-42.667 17.067-59.733 0l-22.756-22.756 88.178-88.178 22.756 22.756c14.222 19.911 14.222 45.511-2.844 62.578zM873.244 615.822h-722.489c-34.133 0-59.733-28.444-59.733-59.733v-719.644c0-34.133 28.444-59.733 59.733-59.733h719.644c34.133 0 59.733 28.444 59.733 59.733v719.644c2.844 34.133-25.6 59.733-56.889 59.733zM344.178-174.933h-193.422c-5.689 0-8.533 2.844-8.533 8.533v125.156h201.956v-133.689zM708.267-174.933h-321.422v136.533h321.422v-136.533zM386.844 4.267v28.444c0 11.378-8.533 22.756-22.756 22.756s-22.756-8.533-22.756-22.756v-28.444h-199.111v224.711h42.667c11.378 0 22.756 8.533 22.756 22.756s-8.533 22.756-22.756 22.756h-42.667v284.444c0 2.844 2.844 5.689 8.533 5.689h193.422v-85.333c0-11.378 8.533-22.756 22.756-22.756s22.756 8.533 22.756 22.756v85.333h321.422v-292.978h-85.333c-11.378 0-22.756-8.533-22.756-22.756s8.533-22.756 22.756-22.756h82.489v-224.711h-321.422zM881.778-163.556c0-5.689-2.844-8.533-8.533-8.533h-122.311v136.533h130.844v-128zM881.778 4.267h-130.844v224.711h130.844v-224.711zM881.778 271.644h-130.844v292.978h122.311c5.689 0 8.533-2.844 8.533-8.533v-284.444z" />
<glyph unicode="&#xe913;" glyph-name="geofence" d="M512 610.133c-139.378 0-253.156-113.778-253.156-253.156 0-76.8 34.133-142.222 85.333-190.578 0 0 39.822-36.978 56.889-68.267l96.711-162.133c2.844-5.689 8.533-8.533 14.222-8.533s11.378 2.844 14.222 8.533l96.711 162.133c19.911 31.289 56.889 68.267 56.889 68.267 54.044 45.511 85.333 113.778 85.333 190.578 0 142.222-113.778 253.156-253.156 253.156zM665.6 302.933c0-2.844-2.844-5.689-2.844-8.533-25.6-56.889-82.489-93.867-147.911-93.867-91.022 0-164.978 73.956-164.978 162.133 0 91.022 73.956 162.133 164.978 162.133 17.067 0 34.133-2.844 48.356-8.533 5.689-2.844 11.378-2.844 14.222-5.689 39.822-17.067 71.111-48.356 88.178-88.178 8.533-19.911 14.222-39.822 14.222-62.578-2.844-19.911-8.533-39.822-14.222-56.889zM950.044-49.778c0 56.889-62.578 102.4-173.511 133.689-14.222 2.844-31.289-5.689-34.133-19.911s5.689-31.289 19.911-34.133c91.022-22.756 133.689-56.889 133.689-76.8 0-36.978-130.844-105.244-381.156-105.244s-381.156 68.267-381.156 105.244c0 19.911 39.822 54.044 130.844 76.8 14.222 2.844 25.6 19.911 19.911 34.133-2.844 14.222-19.911 25.6-34.133 19.911-110.933-28.444-173.511-76.8-173.511-133.689 0-108.089 219.022-162.133 438.044-162.133 216.178-2.844 435.2 54.044 435.2 162.133z" />
<glyph unicode="&#xe914;" glyph-name="terrain" d="M947.2 29.867l-341.333 341.333c-14.222 14.222-34.133 14.222-48.356 0l-176.356-176.356-45.511 45.511c-14.222 14.222-34.133 14.222-48.356 0l-210.489-210.489c-14.222-14.222-8.533-25.6 11.378-25.6h847.644c19.911-2.844 25.6 11.378 11.378 25.6z" />
</font>
</defs>
</svg>
