<?xml version="1.0" standalone="no"?>
<!DOCTYPE svg PUBLIC "-//W3C//DTD SVG 1.1//EN" "http://www.w3.org/Graphics/SVG/1.1/DTD/svg11.dtd" >
<svg xmlns="http://www.w3.org/2000/svg">
<metadata>Generated by IcoMoon</metadata>
<defs>
<font id="orange" horiz-adv-x="1024">
<font-face units-per-em="1024" ascent="960" descent="-64" />
<missing-glyph horiz-adv-x="1024" />
<glyph unicode="&#x20;" horiz-adv-x="0" d="" />
<glyph unicode="&#xe62d;" glyph-name="popout-care" d="M350.519-19.028c-247.778 111.974-358.033 403.379-246.618 651.268l-83.422 37.696c112.124 248.098 404.134 358.319 652.233 246.195 247.774-111.987 358.029-403.379 246.626-651.268l83.396-37.696c-112.111-248.081-404.122-358.319-652.216-246.195z" />
<glyph unicode="&#xe62e;" glyph-name="popout-family" d="M973.086 322.496c-19.368-19.368-42.173-33.185-66.445-41.504 10.562-22.439 16.49-47.482 16.49-73.923 0-96.018-77.83-173.848-173.84-173.848-27.388 0-53.284 6.355-76.33 17.634-8.397-23.333-21.915-45.235-40.611-63.935-67.896-67.896-177.965-67.888-245.852 0-19.368 19.368-33.185 42.169-41.504 66.441-22.439-10.562-47.482-16.49-73.927-16.49-96.018-0.004-173.844 77.83-173.844 173.844 0 27.388 6.355 53.28 17.634 76.33-23.337 8.393-45.235 21.91-63.935 40.611-67.896 67.888-67.896 177.961 0 245.857 19.364 19.36 42.164 33.181 66.436 41.5-10.562 22.435-16.49 47.482-16.49 73.923 0 96.014 77.83 173.848 173.848 173.848 27.388 0 53.28-6.351 76.326-17.634 8.397 23.333 21.915 45.235 40.611 63.927 67.896 67.9 177.965 67.896 245.857 0.012 19.364-19.368 33.185-42.173 41.5-66.445 22.439 10.558 47.482 16.49 73.923 16.49 96.022 0 173.848-77.834 173.852-173.84 0-27.388-6.355-53.288-17.638-76.334 23.333-8.397 45.235-21.915 63.931-40.611 67.9-67.896 67.896-177.961 0.008-245.852z" />
<glyph unicode="&#xe62f;" glyph-name="popout-fun" d="M937.64 447.977c53.404 54.355 86.383 128.83 86.383 211.004 0 166.262-134.771 301.019-301.019 301.019-82.187 0-156.657-32.987-210.977-86.387-54.328 53.4-128.799 86.387-210.99 86.387-166.244 0-301.037-134.757-301.037-301.019 0-82.173 33.001-156.648 86.401-211.004-53.4-54.288-86.401-128.772-86.401-210.958 0-166.244 134.793-301.019 301.037-301.019 82.191 0 156.662 32.987 210.99 86.396 54.319-53.409 128.79-86.396 210.977-86.396 166.248 0 301.019 134.775 301.019 301.019 0 82.187-32.978 156.671-86.383 210.958z" />
<glyph unicode="&#xe630;" glyph-name="popout-home" d="M1024 693.989v-757.989h-1024v757.989l512 266.011 512-266.011z" />
<glyph unicode="&#xe631;" glyph-name="popout-money" d="M1024 156.996c-98.336 59.583-164.073 167.609-164.073 291.001 0 123.383 65.738 231.409 164.073 291.001v221.001h-1024v-1024h1024v220.996z" />
<glyph unicode="&#xe632;" glyph-name="popout-on-the-move" d="M512.771 956.407v0c380.218 0 752.631-348.924 315.639-764.703-215.067-204.629-315.639-253.669-315.639-253.669s-100.572 49.040-315.639 253.669c-436.992 415.78-64.579 764.703 315.639 764.703z" />
<glyph unicode="&#xe633;" glyph-name="popout-tariff" d="M104.355 138.222l-71.208-184.934 191.191 71.127c81.991-55.79 181.017-88.415 287.662-88.415 282.77 0 512.004 229.23 512.004 512s-229.234 512-512.004 512c-282.77 0-512-229.23-512-512 0-116.427 38.89-223.766 104.355-309.778z" />
<glyph unicode="&#xe634;" glyph-name="popout-tech" d="M0 676.315l283.978 283.685h740.017v-738.342l-285.952-285.658h-738.044v740.315z" />
<glyph unicode="&#xe635;" glyph-name="popout-wellbeing" horiz-adv-x="1027" d="M1.498 575.861c-17.854 255.319 126.707 384.139 283.168 384.139 93.378 0 176.121-47.567 227.782-120.947h1.711c51.662 73.38 134.418 120.947 227.8 120.947 156.456 0 301.027-128.82 283.164-384.139-26.783-382.988-320.524-639.861-511.817-639.861-191.289 0-485.038 256.872-511.808 639.861z" />
<glyph unicode="&#xe636;" glyph-name="popout-work" d="M1023.869-62.513h-1022.067v893.526h343.788c19.439 74.222 86.941 128.987 167.247 128.987 80.311 0 147.813-54.765 167.243-128.987h343.788v-893.526z" />
<glyph unicode="&#xe637;" glyph-name="frame-family" d="M892.89 547.418c-15.443 15.436-33.542 26.606-52.825 33.534 9.335 19.045 14.576 40.438 14.576 63.070-0.007 79.308-64.298 143.599-143.624 143.599-21.837 0-42.515-4.898-61.050-13.615-6.871 20.049-18.297 38.881-34.282 54.884-56.094 56.072-147.016 56.072-203.099-0.004-15.443-15.447-26.609-33.538-33.545-52.814-19.041 9.317-40.427 14.562-63.055 14.562-79.315 0-143.613-64.298-143.613-143.613 0-21.837 4.906-42.529 13.63-61.058-20.056-6.882-38.899-18.293-54.891-34.286-56.076-56.083-56.076-147.012 0-203.088 15.458-15.447 33.545-26.609 52.821-33.552-9.317-19.034-14.569-40.427-14.569-63.052 0-79.311 64.287-143.613 143.609-143.606 21.848 0 42.533 4.884 61.068 13.623 6.878-20.049 18.286-38.888 34.289-54.891 56.076-56.080 146.994-56.091 203.085 0 15.443 15.45 26.613 33.542 33.556 52.825 19.030-9.324 40.427-14.573 63.048-14.573 79.304 0 143.609 64.298 143.609 143.606 0 21.848-4.895 42.533-13.623 61.065 20.042 6.878 38.881 18.293 54.884 34.286 56.076 56.091 56.076 147.009 0 203.099zM1024.004-64h-1024.004v1024h1024.004v-1024z" />
<glyph unicode="&#xe638;" glyph-name="frame-fun" d="M853.142 447.989c42.804 43.566 69.236 103.258 69.236 169.121 0 133.26-108.020 241.268-241.268 241.268-65.873 0-125.562-26.44-169.099-69.24-43.544 42.8-103.233 69.24-169.11 69.24-133.245 0-241.283-108.009-241.283-241.268 0-65.862 26.45-125.554 69.251-169.121-42.8-43.512-69.251-103.211-69.251-169.084 0-133.245 108.038-241.268 241.283-241.268 65.877 0 125.565 26.44 169.11 69.247 43.537-42.808 103.226-69.247 169.099-69.247 133.249 0 241.268 108.023 241.268 241.268 0 65.873-26.432 125.572-69.236 169.084zM1024-64h-1024v1024h1024v-1024z" />
<glyph unicode="&#xe639;" glyph-name="frame-home" d="M1023.996 960h-1023.996v-1024h1023.996v1024zM921.599 644.791v-606.389h-819.197v606.389l409.599 212.808 409.599-212.808z" />
<glyph unicode="&#xe63a;" glyph-name="frame-money" d="M921.598 215.199c-78.668 47.666-131.258 134.087-131.258 232.801 0 98.707 52.59 185.127 131.258 232.801v176.801h-819.199v-819.199h819.199v176.797zM1024-64h-1024v1024h1024v-1024z" />
<glyph unicode="&#xe63b;" glyph-name="frame-on-the-move" d="M511.995 858.447c-305.75 0-605.206-280.578-253.81-614.924 172.938-164.55 253.81-203.976 253.81-203.976s80.875 39.426 253.814 203.976c351.396 334.346 51.922 614.924-253.814 614.924zM1024-64h-1024v1024h1024v-1024z" />
<glyph unicode="&#xe63c;" glyph-name="frame-tariff" d="M185.327 199.768l-57.059-148.209 153.208 56.994c65.704-44.697 145.059-70.837 230.522-70.837 226.606 0 410.282 183.683 410.282 410.289 0 226.603-183.676 410.286-410.282 410.286-226.595 0-410.296-183.683-410.296-410.286 0-93.303 31.168-179.334 83.625-248.238zM1024.004-64h-1024.004v1024h1024.004v-1024z" />
<glyph unicode="&#xe63d;" glyph-name="frame-tech" d="M0-64h1024v1024h-1024v-1024zM102.398 630.654l227.186 226.944h592.014v-590.674l-228.761-228.523h-590.439v592.252z" />
<glyph unicode="&#xe63e;" glyph-name="frame-wellbeing" d="M0-64h1024.004v1024h-1024.004v-1024zM102.431 550.315c-14.287 204.309 101.398 307.394 226.598 307.394 74.724 0 140.936-38.064 182.277-96.785h1.373c41.337 58.72 107.564 96.785 182.288 96.785 125.2 0 240.893-103.085 226.598-307.394-21.436-306.477-256.491-512.036-409.573-512.036-153.074 0-388.14 205.559-409.562 512.036z" />
<glyph unicode="&#xe63f;" glyph-name="frame-work" d="M1023.996 960h-1023.996v-1024h1023.996v1024zM921.595 38.405h-819.204v716.166h275.553c15.584 59.493 69.684 103.388 134.054 103.388 64.366 0 118.477-43.895 134.047-103.388h275.55v-716.166z" />
<glyph unicode="&#xe640;" glyph-name="frame-care" d="M1024 960h-1024v-1024h1024v1024zM379.938 64.657c-203.146 91.807-293.543 330.708-202.195 533.937l-68.387 30.915c91.919 203.395 331.322 293.756 534.724 201.834 212.928-96.239 290.368-337.752 202.206-533.937l68.355-30.904c-91.908-203.391-331.3-293.764-534.702-201.845z" />
<glyph unicode="&#xe900;" glyph-name="2for1cinematicket" d="M600.474 858.010c-16.896-12.186-32.87-23.962-35.738-26.010-8.397-6.246-70.144-50.995-78.848-57.139-2.253-1.536-18.33-13.21-35.84-25.907-17.408-12.698-50.381-36.557-73.216-53.146-22.835-16.486-43.725-31.744-46.592-33.792-8.192-6.042-53.965-39.219-56.832-41.165-1.434-0.922-10.138-7.27-19.456-14.029-9.318-6.861-22.221-16.179-28.672-20.89l-11.776-8.397 17.203-0.307c9.421-0.102 24.781-0.102 34.099 0l16.896 0.307-4.096 5.837-4.198 5.837 15.872 11.571c19.456 14.131 25.395 18.227 25.702 17.92 1.024-1.024 24.678-33.894 26.829-37.274l2.765-4.301 505.344-0.102-10.547 14.643c-5.837 7.987-14.643 20.173-19.558 27.034l-8.909 12.493-8.397-4.506c-11.571-6.144-21.299-8.806-34.509-9.216-23.040-0.819-42.086 6.758-57.856 22.938-9.933 10.138-16.998 23.654-19.968 37.99-1.638 8.294-1.126 24.883 1.126 33.792 3.584 14.131 14.234 31.642 24.371 39.731 2.253 1.843 4.198 3.789 4.198 4.301s-15.77 22.733-35.021 49.357c-19.251 26.624-39.117 54.17-44.134 61.235s-9.318 12.902-9.421 13.107c-0.102 0.102-14.029-9.728-30.822-21.914zM641.024 822.784c14.336-19.866 14.438-19.968 12.083-21.504-1.229-0.819-10.547-7.578-20.685-14.95l-18.432-13.517-5.734 7.885c-16.384 22.426-23.552 32.666-23.552 33.485 0.102 1.434 40.346 30.106 41.165 29.286 0.41-0.41 7.168-9.728 15.155-20.685zM578.56 778.138c7.987-11.059 14.131-20.48 13.619-20.89-2.56-2.458-39.322-28.672-40.141-28.672-0.512 0-6.554 7.987-13.517 17.715-6.861 9.626-13.414 18.637-14.541 19.866-1.024 1.229-1.638 2.662-1.331 3.174s3.379 2.97 6.758 5.427c3.482 2.458 12.288 8.909 19.763 14.438 7.373 5.427 13.824 9.626 14.234 9.421 0.41-0.307 7.27-9.523 15.155-20.48zM515.584 734.208c7.782-10.65 14.234-19.968 14.541-20.582 0.41-1.126-38.4-30.106-40.346-30.106-0.512 0-3.891 4.198-7.475 9.421-3.686 5.12-7.782 10.854-9.216 12.8s-5.018 6.861-7.885 10.957l-5.427 7.578 9.011 6.554c4.915 3.584 10.957 7.987 13.517 9.83 2.56 1.741 7.782 5.53 11.674 8.397 3.891 2.765 7.27 5.018 7.373 4.813 0.102-0.102 6.554-8.909 14.234-19.661zM454.554 687.718l14.336-19.968-6.349-4.608c-3.584-2.56-10.24-7.475-14.95-10.854s-11.059-8.090-14.234-10.445l-5.734-4.198-3.072 4.198c-1.638 2.355-4.71 6.656-6.758 9.421-2.15 2.867-7.475 10.24-12.083 16.486l-8.192 11.469 20.582 14.95c11.366 8.192 20.992 14.541 21.402 14.131s7.168-9.626 15.053-20.582zM391.68 643.789c7.885-11.059 14.336-20.378 14.336-20.787 0-1.126-39.526-29.696-40.55-29.389-0.512 0.205-7.373 9.318-15.258 20.275-13.722 18.944-14.336 19.968-12.595 21.606 1.024 0.922 8.806 6.656 17.203 12.698 8.499 6.144 16.794 12.083 18.432 13.414 1.741 1.331 3.277 2.458 3.584 2.355 0.307 0 6.963-9.011 14.848-20.173zM164.352 542.003c-21.914-15.667-43.008-30.618-46.797-33.382l-6.861-5.018 7.885-10.854c11.878-16.384 42.291-57.856 53.453-72.909 5.325-7.27 12.698-17.306 16.282-22.221l6.554-8.909 3.686 1.536c2.048 0.922 4.301 1.843 5.018 2.15 0.922 0.41 1.229 9.728 1.229 41.882 0 22.733-0.307 41.37-0.614 41.37-0.41 0-6.349-4.096-13.312-9.216-6.963-5.018-13.005-9.216-13.517-9.216-1.126 0-29.798 39.117-29.594 40.448 0 0.614 9.318 7.578 20.48 15.667l20.378 14.541 7.782-10.752 7.885-10.752 0.307 16.486c0.102 9.011 0.102 23.45 0 32.051l-0.307 15.565-39.936-28.467zM230.4 473.702v-76.595l7.066-0.717c32.256-3.174 58.778-25.702 67.277-57.139 2.458-8.909 2.56-29.696 0.102-38.502-3.482-12.902-10.547-25.293-19.866-34.509-14.131-14.131-32.973-22.528-51.712-22.938l-2.867-0.102v-153.6h640v153.19l-8.909 1.126c-22.426 2.867-42.291 14.95-54.682 33.28-17.306 25.498-17.408 60.109-0.102 85.606 13.926 20.378 37.171 33.382 60.928 33.894l2.765 0.102v153.6h-640v-76.698zM307.2 499.2v-25.6h-51.2v51.2h51.2v-25.6zM384 499.2v-25.6h-51.2v51.2h51.2v-25.6zM460.8 499.2v-25.6h-51.2v51.2h51.2v-25.6zM537.6 499.2v-25.6h-51.2v51.2h51.2v-25.6zM614.4 499.2v-25.6h-51.2v51.2h51.2v-25.6zM691.2 499.2v-25.6h-51.2v51.2h51.2v-25.6zM768 499.2v-25.6h-51.2v51.2h51.2v-25.6zM844.8 499.2v-25.6h-51.2v51.2h51.2v-25.6zM553.984 420.454c0-0.512 3.891-9.114 8.704-19.046s8.704-18.227 8.704-18.432c0-0.102 2.97-6.451 6.656-14.029l6.554-13.824 9.523-1.229c5.222-0.717 10.957-1.434 12.595-1.741 1.741-0.205 12.902-1.741 24.883-3.379 11.981-1.536 22.016-3.174 22.323-3.482s-10.752-11.878-24.678-25.805c-20.787-20.787-25.19-25.702-24.678-27.443 0.205-1.229 3.584-17.408 7.27-36.045 3.686-18.534 7.066-34.918 7.373-36.147 0.512-2.355 0.41-2.355-5.939 1.126-3.584 1.946-10.24 5.53-14.746 7.885-4.506 2.458-10.445 5.632-13.312 7.168-2.765 1.536-8.294 4.506-12.288 6.656-3.891 2.15-10.035 5.427-13.619 7.373l-6.349 3.482-6.451-3.482c-3.482-1.946-12.595-6.861-20.173-10.957-14.746-7.885-19.354-10.445-32.051-17.306-7.578-4.198-7.987-4.301-7.475-1.946 0.307 1.229 3.584 17.613 7.27 36.147 3.789 18.637 7.066 34.816 7.373 36.045 0.41 1.843-3.994 6.656-24.781 27.443-13.926 13.926-25.088 25.498-24.781 25.702 0.614 0.614 2.765 1.024 14.029 2.458 4.813 0.614 9.83 1.331 11.264 1.536 6.656 0.922 11.162 1.536 16.384 2.048 3.072 0.41 6.349 0.819 7.168 1.024s4.096 0.614 7.168 1.024c14.438 1.638 13.005 0.614 19.046 13.824 20.275 44.032 25.293 54.272 26.214 54.272 0.41 0 0.819-0.41 0.819-0.922zM307.2 140.8v-25.6h-51.2v51.2h51.2v-25.6zM384 140.8v-25.6h-51.2v51.2h51.2v-25.6zM460.8 140.8v-25.6h-51.2v51.2h51.2v-25.6zM537.6 140.8v-25.6h-51.2v51.2h51.2v-25.6zM614.4 140.8v-25.6h-51.2v51.2h51.2v-25.6zM691.2 140.8v-25.6h-51.2v51.2h51.2v-25.6zM768 140.8v-25.6h-51.2v51.2h51.2v-25.6zM844.8 140.8v-25.6h-51.2v51.2h51.2v-25.6z" />
<glyph unicode="&#xe901;" glyph-name="3g" d="M694.784 731.443c-35.738-3.891-60.314-10.342-86.733-22.733-62.771-29.286-107.93-84.48-129.229-158.003-3.379-11.674-7.066-28.57-8.294-38.195-0.307-2.56-0.819-5.734-1.024-7.168-0.512-3.482-1.536-13.517-2.15-21.504-0.717-9.523-0.717-39.117 0-47.616 0.307-3.891 0.922-9.933 1.229-13.312 0.922-10.65 4.403-29.798 7.475-42.291 21.709-85.811 77.21-148.378 155.136-174.899 16.896-5.734 38.502-10.547 54.886-12.083 3.072-0.307 8.192-0.819 11.264-1.126 7.578-0.819 35.226-0.819 41.472 0 31.334 3.891 58.88 13.414 79.872 27.443 13.005 8.704 27.75 22.323 39.424 36.352l4.506 5.53 5.734-29.082 5.632-28.979 35.84-0.307c20.89-0.102 35.942 0.205 36.25 0.717s0.614 63.283 0.614 139.571v138.547l-217.293 0.512 0.102-42.189 0.102-42.291 114.278-0.512-0.614-4.915c-1.843-13.414-3.789-22.323-7.168-32.461-14.234-43.622-47.514-68.506-97.792-73.114-9.933-0.819-32.768-0.614-39.014 0.41-12.186 2.048-16.589 2.97-23.962 5.325-49.254 15.462-82.944 62.259-92.058 127.795-2.662 18.944-2.662 19.866-2.662 39.424-0.102 49.562 12.186 94.822 33.587 124.928 24.371 34.099 61.542 51.917 107.725 51.61 45.056-0.307 79.667-20.685 97.792-57.446 4.096-8.499 9.728-24.269 9.728-27.546 0-0.717 0.307-1.434 0.819-1.536 0.41 0 24.371-0.205 53.35-0.205 33.792-0.102 53.043 0.205 53.862 0.819 1.024 0.819 0.819 3.994-1.126 14.848-7.27 42.086-24.883 75.981-54.886 105.267-15.462 15.155-31.437 26.317-53.146 36.966-23.757 11.776-47.821 18.739-80.282 23.142-7.373 1.024-44.851 1.229-53.248 0.307zM251.802 719.974c-0.205-0.205-3.584-0.614-7.578-0.922-38.502-3.277-75.981-20.070-101.786-45.773-29.594-29.389-45.875-66.458-50.688-115.405l-1.229-12.595 6.144-0.102c23.859-0.205 91.034 0.102 91.443 0.41 0.205 0.307 0.614 4.301 0.819 9.011 2.253 40.96 22.63 69.939 55.296 78.336 10.24 2.662 34.202 2.662 43.52 0 17.203-5.018 32.563-15.565 41.165-28.365 10.957-16.282 12.595-46.49 3.482-64.102-9.421-18.432-33.178-31.642-62.566-34.918-3.379-0.41-13.619-0.717-22.835-0.717h-16.589v-72.192l13.107-0.102c29.594-0.205 44.237-1.946 59.187-7.066 12.083-4.096 19.354-8.499 27.546-16.794 12.8-12.902 17.306-26.419 17.203-51.302 0-11.162-0.512-16.077-2.253-22.323-7.578-28.57-28.877-48.333-59.29-54.989-12.288-2.765-35.123-2.253-46.182 0.922-32.768 9.626-53.862 35.533-60.928 74.957-1.331 7.373-2.56 17.306-2.662 20.89 0 0.717-16.794 1.024-48.333 0.922h-48.435l0.102-14.848c0.205-66.048 35.021-122.675 91.853-149.402 19.661-9.216 43.622-15.872 64.922-17.92 3.277-0.307 7.987-0.819 10.547-1.024 5.837-0.614 33.178-0.614 37.888-0.102 1.946 0.205 6.554 0.717 10.24 1.126 3.686 0.307 11.264 1.536 16.896 2.662s11.264 2.253 12.595 2.56c8.397 1.638 29.491 9.626 41.677 15.77 34.509 17.306 58.368 41.165 74.24 74.24 9.933 20.685 14.541 42.496 14.541 69.12 0 34.099-10.957 62.054-32.87 84.070-14.541 14.746-31.334 24.269-52.019 29.594-3.994 1.024-6.144 3.072-3.277 3.072 2.253 0 16.691 6.246 23.245 10.138 23.347 13.619 40.141 40.96 44.749 72.806 1.946 13.21 1.229 36.659-1.434 48.23-5.222 23.040-16.896 43.315-35.84 62.259-30.72 30.822-77.107 48.845-128.205 49.766-9.421 0.205-17.203 0.205-17.408 0.102z" />
<glyph unicode="&#xe902;" glyph-name="4g" d="M691.2 731.034c-48.64-5.018-88.883-20.275-124.928-47.309-41.984-31.437-74.138-81.203-88.986-137.728-7.885-29.696-10.854-53.35-10.752-86.221 0-23.962 0.922-35.021 4.506-56.934 12.288-73.216 51.61-136.090 107.52-171.827 39.219-25.19 81.203-37.376 132.608-38.605 18.227-0.41 23.654-0.102 35.635 1.638 31.13 4.608 57.549 15.053 78.848 31.13 10.342 7.782 26.317 23.552 34.202 33.69 2.458 3.277 2.355 3.379 4.301-6.963 0.614-3.379 2.253-11.878 3.584-18.944 1.434-7.066 3.072-15.77 3.686-19.456s1.331-7.475 1.638-8.397c0.512-1.741 3.174-1.843 37.376-1.843h36.762v30.515c0.102 16.691 0.307 79.565 0.614 139.776l0.512 109.261h-219.238v-84.992h114.79l-0.717-5.325c-7.782-62.874-44.442-99.84-103.834-105.062-9.83-0.819-32.051-0.819-38.912 0.102-38.093 4.915-66.867 22.323-88.781 53.658-13.619 19.456-25.498 51.814-28.57 77.619-0.307 2.253-1.024 7.27-1.638 11.162-1.331 8.909-1.741 41.37-0.717 52.326 1.536 14.541 1.946 18.227 3.482 26.829 10.445 59.802 39.219 100.864 83.046 118.374 12.083 4.915 19.866 6.656 35.021 8.294 28.262 2.867 50.688-0.41 71.168-10.342 26.522-12.902 43.418-33.485 53.35-65.229l3.174-10.24h53.146c29.184-0.102 53.555 0.205 54.067 0.512 1.331 0.819 0.512 8.294-2.765 23.962-15.053 72.499-71.987 129.638-148.992 149.402-3.686 0.922-7.987 2.15-9.728 2.662-1.638 0.41-5.12 1.229-7.68 1.536-2.56 0.41-5.53 0.922-6.554 1.126-16.486 3.072-49.971 3.891-70.246 1.843zM262.349 663.859c-19.046-25.498-43.315-58.163-53.965-72.499-42.906-57.549-60.928-81.613-63.898-85.504-1.741-2.253-17.715-23.552-35.43-47.411l-32.256-43.213v-95.232h214.016v-116.736h98.304v117.76h66.56v84.992h-66.56v304.128h-92.16l-34.611-46.285zM290.816 493.056v-88.064h-133.12l16.179 21.811c8.909 11.878 25.088 33.69 36.045 48.333 10.854 14.643 25.6 34.509 32.768 44.032 7.066 9.626 20.378 27.443 29.491 39.731 9.114 12.186 17.101 22.221 17.613 22.221 0.717 0 1.024-30.413 1.024-88.064z" />
<glyph unicode="&#xe903;" glyph-name="4g_cam" d="M768 742.502v-12.902l5.939-0.102c18.842-0.102 45.261-6.042 64.717-14.541 42.906-18.637 76.8-52.736 94.72-95.437 7.782-18.534 13.824-46.592 13.824-64.512v-4.608h25.907l-0.717 12.083c-4.608 76.8-51.2 143.872-121.446 175.002-23.552 10.445-46.592 15.974-72.397 17.306l-10.547 0.614v-12.902zM768 691.507v-12.8l8.806-0.717c37.888-2.867 71.475-21.402 94.208-51.814 11.776-15.872 21.299-38.605 23.552-56.832 0.41-3.379 0.819-6.554 0.922-7.168 0.102-0.512 0.307-3.482 0.307-6.349l0.205-5.427h25.907l-0.717 9.523c-0.819 11.981-2.253 20.685-4.813 30.106-17.101 63.795-72.602 109.158-138.854 113.562l-9.523 0.614v-12.698zM170.598 661.606c-5.734-2.15-10.957-6.758-13.926-12.493-2.458-4.71-2.56-5.837-2.867-26.214l-0.307-21.299h-76.698v-220.16c0-156.672 0.307-221.594 1.126-225.485 3.891-18.637 18.944-34.202 37.888-39.219 4.71-1.331 55.603-1.536 354.509-1.536h348.877l-0.205 223.437-0.307 223.539-2.662 6.349c-6.349 14.746-15.462 23.654-31.027 30.31l-5.222 2.253-498.176 0.512v19.866c0 21.504-0.717 25.293-5.734 31.949-1.536 1.946-4.915 4.813-7.475 6.349l-4.71 2.765-44.544 0.205c-36.147 0.205-45.261 0-48.538-1.126zM264.704 533.402c5.222-1.843 11.571-7.373 14.541-12.902 1.536-2.867 1.843-5.939 1.843-21.299 0-17.715 0-17.92-2.867-22.733-3.277-5.632-7.782-9.421-13.926-11.571-6.554-2.253-86.835-2.253-93.389 0-6.144 2.15-10.65 5.939-13.926 11.571-2.662 4.608-2.867 5.632-3.277 19.763-0.41 18.842 0.922 24.576 7.475 31.027 7.475 7.578 7.885 7.578 56.013 7.68 36.864 0.102 43.213-0.102 47.514-1.536zM531.968 521.421c34.816-7.27 63.078-22.938 87.347-48.333 24.371-25.498 39.219-56.013 44.646-91.648 1.331-9.011 1.536-37.888 0.307-45.056-0.307-1.434-1.024-5.734-1.638-9.626-4.198-24.781-19.456-56.218-37.376-76.8-26.624-30.515-58.368-48.23-100.454-56.115-11.981-2.253-42.701-1.638-56.422 1.024-32.051 6.349-61.030 21.402-84.070 43.52-28.262 27.238-45.466 61.44-50.381 100.045-1.434 11.059-0.614 38.81 1.434 49.152 8.090 41.574 28.467 75.366 60.928 101.478 22.323 17.92 52.941 30.72 82.432 34.611 13.312 1.741 39.526 0.614 53.248-2.253zM768 640.102v-12.902h3.482c6.042 0 18.227-2.765 25.702-5.837 27.443-11.264 46.797-39.014 47.514-68.096l0.102-2.867h25.907l-0.717 8.499c-2.048 24.166-12.493 46.49-29.798 63.693-17.101 17.203-39.526 27.648-63.795 29.696l-8.397 0.819v-13.005z" />
<glyph unicode="&#xe904;" glyph-name="4G_Cam__Live_80" d="M53.76 688.64c-21.76-21.76-21.76-613.12 0-634.88s702.72-21.76 724.48 0c8.96 8.96 15.36 53.76 15.36 110.080v94.72l83.2-72.96c44.8-39.68 88.32-69.12 96-64 16.64 10.24 17.92 487.68 1.28 499.2-7.68 3.84-48.64-25.6-93.44-65.28l-80.64-71.68-6.4 93.44c-3.84 52.48-11.52 102.4-16.64 111.36-14.080 21.76-700.16 23.040-723.2 0zM128 396.8v-89.6h51.2c37.12 0 51.2-5.12 51.2-19.2 0-15.36-16.64-19.2-76.8-19.2h-76.8v108.8c0 99.84 2.56 108.8 25.6 108.8s25.6-8.96 25.6-89.6zM320 377.6c0-107.52 0-108.8-32-108.8s-32 1.28-32 108.8c0 107.52 0 108.8 32 108.8s32-1.28 32-108.8zM419.84 408.32c26.88-85.76 28.16-85.76 55.040 6.4 16.64 57.6 40.96 85.76 57.6 67.84 5.12-3.84-7.68-53.76-26.88-110.080-29.44-90.88-38.4-103.68-64-103.68-24.32 0-33.28 10.24-43.52 48.64-7.68 25.6-21.76 74.24-32 108.8-16.64 56.32-16.64 60.16 6.4 60.16 17.92 0 29.44-19.2 47.36-78.080zM729.6 467.2c0-14.080-15.36-19.2-57.6-19.2-48.64 0-57.6-3.84-57.6-25.6s8.96-25.6 51.2-25.6c37.12 0 51.2-5.12 51.2-19.2s-14.080-19.2-51.2-19.2c-42.24 0-51.2-3.84-51.2-25.6s8.96-25.6 57.6-25.6c42.24 0 57.6-5.12 57.6-19.2 0-15.36-17.92-19.2-83.2-19.2h-83.2v217.6h83.2c65.28 0 83.2-3.84 83.2-19.2z" />
<glyph unicode="&#xe905;" glyph-name="4G_Cam_Camera_80" d="M780.8 768c0-6.4 23.040-17.92 49.92-25.6 57.6-15.36 110.080-70.4 122.88-128 10.24-43.52 32-52.48 32-11.52 0 51.2-53.76 125.44-108.8 152.32-57.6 28.16-96 33.28-96 12.8zM780.8 716.8c0-6.4 14.080-15.36 32-20.48 35.84-8.96 96-72.96 96-102.4 0-10.24 6.4-17.92 12.8-17.92 17.92 0 15.36 38.4-5.12 74.24-29.44 53.76-135.68 104.96-135.68 66.56zM128 659.2c0-26.88-6.4-32-38.4-32h-38.4v-234.24c0-165.12 5.12-239.36 15.36-249.6 11.52-11.52 115.2-15.36 390.4-15.36h375.040v234.24c0 165.12-5.12 239.36-15.36 249.6-11.52 11.52-93.44 15.36-288 15.36h-272.64v32c0 29.44-3.84 32-64 32s-64-2.56-64-32zM249.6 524.8c0-28.16-6.4-32-55.040-35.84-56.32-3.84-78.080 14.080-61.44 56.32 5.12 14.080 21.76 17.92 61.44 15.36 48.64-3.84 55.040-7.68 55.040-35.84zM588.8 514.56c85.76-62.72 96-177.92 20.48-253.44-81.92-81.92-193.28-67.84-261.12 33.28-97.28 144.64 98.56 323.84 240.64 220.16zM780.8 668.16c0-6.4 14.080-19.2 32-28.16 16.64-8.96 34.56-26.88 39.68-40.96 8.96-28.16 30.72-30.72 30.72-3.84 0 25.6-57.6 83.2-83.2 83.2-10.24 0-19.2-5.12-19.2-10.24z" />
<glyph unicode="&#xe906;" glyph-name="4G_Cam_Inbox80" d="M366.080 875.52c-16.64-15.36-20.48-52.48-20.48-198.4v-177.92h-172.8l154.88-153.6c107.52-106.24 165.12-153.6 185.6-153.6 19.2 0 76.8 47.36 183.040 153.6l154.88 153.6h-172.8v176.64c0 224 2.56 220.16-170.24 220.16-94.72 0-126.72-5.12-142.080-20.48zM64 222.72c0-145.92 0-148.48 37.12-185.6l37.12-37.12h747.52l37.12 37.12c37.12 37.12 37.12 39.68 37.12 185.6v148.48h-128v-243.2h-640v243.2h-128v-148.48z" />
<glyph unicode="&#xe907;" glyph-name="4G_Cam_Outbox_80" d="M326.4 742.4l-153.6-153.6h172.8v-176.64c0-224-2.56-220.16 168.96-220.16 166.4 0 163.84-2.56 163.84 221.44v175.36h172.8l-154.88 153.6c-112.64 110.080-163.84 153.6-185.6 153.6-21.76-1.28-76.8-46.080-184.32-153.6zM64 222.72c0-145.92 0-148.48 37.12-185.6l37.12-37.12h747.52l37.12 37.12c37.12 37.12 37.12 39.68 37.12 185.6v148.48h-128v-243.2h-640v243.2h-128v-148.48z" />
<glyph unicode="&#xe908;" glyph-name="4G_Cam_Rec_80" d="M65.901 686.257c-21.545-21.545-21.545-607.050 0-628.594 20.277-20.277 671.683-21.545 708.436-2.535 20.277 11.406 24.079 27.881 24.079 108.99v95.050l76.040-67.168c41.822-36.752 83.644-67.168 92.515-67.168 11.406 0 16.475 62.099 19.010 244.594 3.802 283.881 5.069 282.614-110.257 177.426l-70.97-64.634-6.337 93.782c-3.802 51.96-11.406 101.386-16.475 110.257-13.941 21.545-693.228 22.812-716.040 0zM679.287 486.020c46.891-16.475 76.040-58.297 48.158-68.436-10.139-3.802-29.149 3.802-43.089 17.743-30.416 30.416-36.752 30.416-73.505 5.069-43.089-30.416-34.218-105.188 13.941-131.802 34.218-17.743 36.752-17.743 59.564 10.139 12.673 15.208 31.683 27.881 43.089 27.881 29.149 0 0-57.030-39.287-74.772-44.356-20.277-72.238-17.743-108.99 11.406-64.634 50.693-54.495 163.485 16.475 198.97 38.020 19.010 38.020 19.010 83.644 3.802zM283.881 465.743c24.079-22.812 26.614-57.030 6.337-77.307-10.139-10.139-10.139-21.545 0-39.287 20.277-38.020 17.743-78.574-5.069-78.574-10.139 0-19.010 6.337-19.010 12.673 0 46.891-22.812 76.040-57.030 76.040-27.881 0-31.683-5.069-31.683-44.356 0-35.485-5.069-44.356-25.347-44.356-22.812 0-25.347 8.871-25.347 107.723v107.723h68.436c45.624 0 76.040-6.337 88.713-20.277zM506.931 467.010c0-13.941-15.208-19.010-57.030-19.010-48.158 0-57.030-3.802-57.030-25.347s8.871-25.347 50.693-25.347c36.752 0 50.693-5.069 50.693-19.010s-13.941-19.010-50.693-19.010c-41.822 0-50.693-3.802-50.693-25.347s8.871-25.347 57.030-25.347c41.822 0 57.030-5.069 57.030-19.010 0-15.208-17.743-19.010-82.376-19.010h-82.376v215.446h82.376c64.634 0 82.376-3.802 82.376-19.010zM177.426 422.653c0-19.010 8.871-25.347 35.485-25.347 43.089 0 54.495 8.871 44.356 32.95-3.802 10.139-22.812 17.743-43.089 17.743-27.881 0-36.752-6.337-36.752-25.347z" />
<glyph unicode="&#xe909;" glyph-name="4g_plus" d="M556.851 613.376c-0.205-0.205-3.379-0.614-7.066-0.922-22.221-2.15-42.598-8.090-64.922-19.149-36.762-18.125-63.59-45.568-82.432-84.378-12.186-25.088-19.558-50.995-22.221-78.848-1.024-10.342-1.024-44.544-0.102-55.091 4.301-46.080 23.962-91.955 52.429-122.573 23.962-25.702 56.73-44.544 91.238-52.634 16.282-3.789 25.498-4.813 45.056-5.222 48.435-1.126 83.866 14.029 112.23 47.821l4.915 5.837 0.922-4.813c0.614-2.662 2.048-10.138 3.277-16.589 1.126-6.451 2.662-14.541 3.379-17.92l1.229-6.144h27.955c15.462 0 28.262 0.41 28.57 0.819 0.307 0.512 0.717 49.357 1.024 108.646l0.41 107.725h-170.086v-66.048h34.099c18.637 0 38.707 0 44.442-0.102h10.547l-0.614-3.789c-2.355-16.486-5.12-26.112-10.342-36.659-5.12-10.035-8.806-15.053-16.179-22.426-11.981-11.571-28.16-19.149-46.080-21.606-2.765-0.41-6.246-0.922-7.68-1.126-6.144-1.024-27.853-0.41-36.352 1.126-16.486 2.867-27.955 7.885-41.062 17.715-13.107 9.933-22.323 21.299-30.106 37.376-11.469 23.757-15.872 45.67-15.872 78.541 0 39.117 7.885 69.222 24.678 94.72 14.746 22.323 40.858 38.195 67.584 41.062 33.075 3.482 59.085-4.096 77.722-22.528 9.011-9.011 15.053-18.944 19.968-33.178l3.686-10.854h82.842l-0.102 5.12c-0.512 18.227-10.138 44.954-23.654 65.331-8.192 12.39-25.702 30.31-37.683 38.707-30.822 21.504-67.994 32.563-109.261 32.358-8.909-0.102-16.282-0.205-16.384-0.307zM845.824 562.688v-38.912h-76.8v-51.2h76.8v-75.776h51.2v75.776h76.8v51.2h-76.8v77.824h-51.2v-38.912zM224.768 566.067c-12.39-16.691-30.106-40.55-39.424-52.941-9.318-12.493-32.154-43.213-50.79-68.198-18.739-25.088-39.322-52.736-45.875-61.44l-11.776-15.872-0.102-37.069v-37.171h165.888l0.205-45.261 0.307-45.261 37.581-0.102c24.269 0 37.786 0.41 37.99 1.024 0.205 0.512 0.307 21.197 0.307 45.875l-0.102 44.749h51.712v32.768c0 30.515-0.102 32.768-1.741 32.87-1.024 0.102-12.698 0.205-25.907 0.307l-24.064 0.102v236.032h-35.84l-35.84-0.102-22.528-30.31zM242.688 427.827v-68.403h-51.2c-37.478 0-51.098 0.307-50.79 1.126 0.205 0.614 9.318 13.107 20.173 27.648 10.854 14.643 26.931 36.25 35.738 48.026 8.704 11.878 22.323 30.106 30.208 40.755 7.885 10.547 14.643 19.149 15.053 19.149 0.512 0 0.819-30.72 0.819-68.301z" />
<glyph unicode="&#xe90a;" glyph-name="4G-Cam-Compact" d="M451.686 804.659c-8.090-2.867-16.486-14.131-16.486-22.016 0-1.741-4.506-1.843-117.043-1.843-79.667 0-118.989-0.307-123.187-1.126-19.558-3.584-36.659-20.685-40.243-40.243-0.614-3.379-1.126-18.227-1.126-33.587v-27.443h25.6v-25.6h-25.6v-460.8h25.6v-25.6h-25.6v-27.443c0-15.36 0.512-30.208 1.126-33.587 3.482-19.251 20.173-36.147 39.629-40.243 7.578-1.536 625.971-1.638 634.675 0 18.534 3.379 34.509 18.33 39.424 36.966 1.638 6.349 1.946 11.162 1.946 35.84v28.467h-25.6v25.6h25.6v460.8h-25.6v25.6h25.805l-0.41 31.539c-0.41 29.594-0.614 31.744-2.765 36.966-6.758 16.282-18.637 27.341-34.304 31.846-3.789 1.024-7.066 1.946-7.27 1.946-0.307 0.102-53.658 0.102-118.682 0.102h-118.17l-0.614 4.608c-1.024 6.246-6.246 13.619-12.288 17.408l-5.018 3.072-57.446 0.205c-50.074 0.205-58.061 0-61.952-1.434zM544.768 598.63c69.018-13.312 123.802-64.717 140.8-132.198 1.434-5.325 2.765-11.366 3.072-13.312 0.205-1.946 0.922-6.349 1.434-9.728 1.434-9.114 0.614-40.448-1.331-50.688-2.662-14.234-5.53-24.371-10.342-36.454-23.142-58.061-73.933-99.226-136.192-110.592-10.854-1.946-39.629-2.662-50.688-1.331-69.325 8.806-126.566 54.784-148.89 119.706-6.963 20.378-9.318 35.226-9.318 58.88 0 22.835 2.662 39.322 9.626 58.675 14.848 41.574 44.032 76.186 82.534 97.69 19.558 10.957 47.821 19.763 69.632 21.606 12.083 1.126 38.4-0.102 49.664-2.253zM263.68 291.226c55.194-10.24 102.81-46.694 127.488-97.69 11.366-23.245 16.282-42.291 17.92-68.301l0.614-10.035h-25.702l-0.102 5.939c-0.102 12.083-3.482 30.618-8.192 44.134-20.992 60.621-77.21 101.581-141.926 103.424l-3.379 0.102v25.907l11.059-0.717c6.042-0.41 16.077-1.638 22.221-2.765zM255.795 240.538c24.371-4.813 46.694-16.896 64.717-35.123 22.835-22.938 34.918-49.254 37.376-81.51l0.717-8.704h-25.805l-0.102 4.403c-0.102 7.168-0.922 12.083-3.482 22.118-10.957 41.472-47.514 71.885-90.726 75.469l-8.090 0.717v25.498l9.011-0.614c4.915-0.41 12.288-1.434 16.384-2.253zM253.44 188.928c7.578-2.253 18.637-8.294 25.498-13.926 15.872-13.107 26.112-32.358 27.853-52.122l0.717-7.68h-25.498l-1.331 7.68c-3.789 22.835-23.040 40.755-45.67 42.701l-4.096 0.41-0.307 12.902c-0.205 11.674-0.102 13.005 1.536 13.312 2.15 0.512 15.462-1.638 21.299-3.277zM495.206 549.274c-28.058-3.686-52.634-15.974-73.421-36.762-15.36-15.36-25.088-31.027-31.539-51.098-4.71-14.438-5.734-21.709-5.632-40.038 0-14.643 0.41-18.33 2.662-27.648 3.994-15.872 8.806-27.238 16.896-40.141 5.734-9.114 7.27-10.957 18.739-22.323 16.486-16.486 35.123-27.136 56.934-32.666 12.493-3.174 13.312-3.277 28.058-3.686 37.376-1.024 67.891 10.957 94.31 37.376 18.022 17.92 28.16 36.045 34.406 61.44 2.355 9.318 2.765 13.107 2.765 27.648 0.102 27.341-5.12 46.49-19.046 68.915-6.349 10.138-7.578 11.571-19.251 23.245-17.818 17.818-39.936 29.594-64.41 34.509-9.318 1.741-31.744 2.458-41.472 1.229z" />
<glyph unicode="&#xe90b;" glyph-name="1013_Reseau" d="M485.274 857.19c-0.205-0.205-5.837-0.717-12.39-1.024-6.656-0.41-13.107-0.922-14.336-1.126-1.331-0.205-5.12-0.614-8.499-1.024-41.882-4.506-87.45-15.565-127.283-30.822-50.483-19.456-95.642-46.285-133.837-79.667-25.907-22.733-51.2-52.531-68.71-81.101-22.938-37.376-37.171-78.643-41.882-121.754-1.331-12.39-1.536-51.61-0.205-57.344 0.307-1.126 0.819-4.813 1.229-8.192 1.741-15.974 6.042-33.587 12.902-54.272 25.293-75.162 84.378-142.746 165.274-189.133 26.214-15.053 60.006-30.003 88.883-39.322l11.981-3.891v-175.821l153.395 153.395 19.763 0.717c10.957 0.41 20.787 0.922 21.914 1.126s5.53 0.717 9.728 1.024c52.122 3.994 115.61 20.378 163.84 42.496 22.528 10.342 50.688 26.010 67.482 37.581 7.885 5.53 28.058 20.582 31.949 24.064 1.536 1.331 5.018 4.301 7.68 6.554 23.040 19.661 47.923 48.23 65.434 75.162 7.475 11.366 23.142 41.472 27.034 51.712 14.438 37.888 20.173 67.789 20.275 104.96 0.307 79.053-32.87 154.726-94.822 215.962-33.075 32.666-69.837 58.368-113.254 79.36-17.613 8.499-18.125 8.704-34.816 15.258-42.701 16.794-96.051 29.491-139.264 32.973-4.506 0.41-9.523 0.922-11.264 1.126-3.686 0.614-67.686 1.536-68.198 1.024zM528.589 752.333c13.312-4.403 22.221-12.902 32.563-30.822 3.686-6.451 7.68-13.312 8.806-15.36 41.267-70.554 99.43-170.394 100.762-172.646 1.024-1.638 4.198-7.168 7.168-12.288 2.97-5.018 6.144-10.547 7.168-12.288 0.922-1.638 5.837-9.933 10.752-18.432 10.547-17.92 28.16-48.128 36.045-61.747 3.072-5.325 6.554-12.186 7.578-15.36 7.885-22.733-1.536-48.128-22.528-60.621-12.8-7.578 1.024-7.168-204.902-7.168-201.523 0-189.44-0.307-202.547 5.632-11.878 5.427-23.45 20.685-26.829 35.226-2.458 10.752 0.307 26.419 6.554 37.069 1.434 2.458 3.789 6.554 5.222 9.114s3.072 5.325 3.584 6.144c1.126 1.638 6.758 11.264 35.84 61.44 3.789 6.451 22.221 38.093 40.96 70.144 18.739 32.154 36.557 62.771 39.731 68.096 3.072 5.325 8.704 15.053 12.493 21.504s11.878 20.275 18.022 30.72c6.042 10.445 13.107 22.63 15.77 27.136 8.499 14.746 11.878 19.354 17.306 24.269 5.939 5.427 14.029 9.728 21.914 11.674 6.963 1.843 21.094 1.126 28.57-1.434zM502.886 651.059c-6.246-2.253-12.698-8.909-14.95-15.667-1.741-5.427-1.741-10.65 0-34.816 0.614-8.909 1.434-21.811 2.048-34.304 0.307-5.632 0.717-12.8 1.024-15.872 0.205-3.072 0.717-10.65 1.024-16.896 0.41-6.144 0.819-13.824 1.024-16.896 0.307-3.072 0.717-11.571 1.126-18.944 0.717-14.336 1.946-18.944 5.734-21.402 3.994-2.56 10.957-3.482 17.408-2.15 10.342 2.048 11.674 4.506 12.595 25.088 0.41 7.578 0.819 15.667 1.024 17.92s0.614 9.626 0.922 16.384c0.307 6.758 0.819 14.848 1.126 17.92 0.205 3.072 0.717 10.035 1.024 15.36 1.126 20.070 1.434 24.371 2.253 35.84 1.331 20.070 1.024 31.744-1.024 35.635-6.349 11.878-19.866 17.203-32.358 12.8zM502.886 446.259c-8.909-3.174-16.486-14.131-16.486-23.962 0-4.915 2.355-11.366 5.734-15.872 8.806-11.469 27.034-12.698 37.376-2.355 5.325 5.325 7.066 9.011 7.782 16.589 0.512 5.53 0.205 7.168-2.253 12.288-5.939 12.493-19.046 17.92-32.154 13.312z" />
<glyph unicode="&#xe90c;" glyph-name="about_event" d="M323.072 842.854c-11.264-3.584-19.456-10.65-24.474-21.094l-3.174-6.656-0.307-23.757-0.307-23.859h-179.098l0.307-326.861c0.205-310.579 0.307-327.27 2.048-332.902 5.837-19.046 16.998-34.099 33.075-44.749 6.554-4.301 11.366-6.451 23.45-10.445 3.379-1.024 70.144-1.331 369.459-1.638l365.261-0.205-0.205 326.861-0.307 326.963-2.15 6.656c-4.813 14.541-10.547 24.269-19.763 33.587-8.704 8.806-22.118 16.794-32.87 19.661-2.56 0.717-5.53 1.536-6.656 1.843s-27.955 0.819-59.597 0.922l-57.651 0.41v21.197c0 11.674-0.512 23.142-1.024 25.6-2.662 11.469-10.445 20.89-21.504 26.214-5.939 2.765-7.68 3.174-15.872 3.174s-9.933-0.307-15.974-3.174c-8.397-3.994-14.541-10.24-18.739-18.842l-3.174-6.656-0.307-23.757-0.41-23.859h-281.19l-0.41 23.859-0.307 23.757-3.174 6.656c-8.192 17.101-28.058 26.419-44.954 21.094zM298.598 662.016c4.096-8.499 10.445-14.848 18.842-18.842 5.939-2.867 7.68-3.174 15.872-3.174s9.933 0.307 15.872 3.174c8.499 4.096 14.848 10.445 18.842 18.842l3.174 6.656 1.024 60.416 6.656-6.758c19.251-19.354 23.654-48.128 11.162-73.421-10.138-20.685-33.178-35.021-56.218-35.021-36.864 0-66.662 31.334-64.205 67.482 1.126 16.589 6.963 29.696 18.432 41.267l6.349 6.451 1.024-60.416 3.174-6.656zM656.998 662.016c5.427-11.059 13.926-18.227 25.293-21.094 17.818-4.608 35.942 4.096 44.134 21.094l3.174 6.656 1.024 60.416 6.758-6.963c11.162-11.264 16.998-24.474 18.022-40.653 2.662-42.496-37.786-76.083-78.95-65.536-11.674 2.97-21.402 8.499-29.901 16.998-24.678 24.576-24.883 65.024-0.41 89.498l6.656 6.656 1.024-60.416 3.174-6.656zM836.096 533.299c7.475-3.891 11.469-7.475 15.667-13.824 6.758-9.933 6.349 3.686 6.349-217.088v-200.499l-662.016 0.512-5.632 2.662c-7.475 3.584-13.005 8.090-17.101 14.234-6.861 10.24-6.451-3.994-6.451 217.293v200.499l663.040-0.512 6.144-3.277zM495.616 485.171c-28.467-4.096-49.254-11.162-69.427-23.552-40.96-25.088-68.915-66.15-77.619-113.562-2.765-15.258-2.56-44.237 0.41-59.494 10.342-52.122 43.622-95.642 90.829-118.477 25.6-12.493 47.616-17.203 76.8-16.589 25.702 0.614 45.568 5.427 68.608 16.486 49.562 23.962 84.070 71.578 92.16 126.976 2.048 13.517 1.331 40.346-1.434 53.658-6.758 33.894-21.606 61.645-46.182 86.221-26.317 26.419-57.037 41.882-94.208 47.411-8.704 1.331-33.382 1.843-39.936 0.922zM524.595 443.29c10.854-3.686 18.432-14.541 18.227-26.214-0.205-19.149-18.432-31.744-36.762-25.498-17.818 6.042-23.859 29.286-11.366 43.52 7.885 8.909 18.944 11.981 29.901 8.192zM544.154 367.002c0.307-0.307 0.717-31.437 0.922-69.12 0.205-64 0.307-68.71 2.048-71.885 2.048-3.789 6.963-6.349 12.8-6.656 3.789-0.205 3.789-0.205 4.096-5.018l0.307-4.915h-90.214v4.506c0 4.915 0.102 5.018 7.68 6.246 2.253 0.307 5.222 1.536 6.554 2.662 5.018 4.096 5.222 8.192 5.018 67.482-0.307 48.64-0.512 55.194-2.048 58.573-1.946 4.301-5.427 6.349-12.288 7.373l-4.915 0.717v10.752l34.714-0.102c19.149 0 35.021-0.307 35.328-0.614z" />
<glyph unicode="&#xe90d;" glyph-name="Accessability" d="M486.195 882.688c-0.102-0.102-4.71-0.614-10.035-0.922-5.325-0.41-10.65-0.922-11.776-1.126s-4.301-0.717-7.168-1.024c-6.758-0.717-10.957-1.434-26.624-3.994-1.126-0.102-3.174-0.614-4.608-0.922s-6.963-1.638-12.288-2.765c-18.944-4.198-51.098-14.234-64-19.968-1.638-0.819-6.042-2.662-9.728-4.096-18.227-7.475-47.718-23.45-67.686-36.762-16.486-10.957-19.354-13.005-33.382-24.474-62.976-50.893-109.875-117.043-137.216-193.229-7.68-21.606-15.77-52.736-18.739-72.499-2.56-16.282-2.97-19.558-3.584-26.317-0.41-3.891-0.922-8.499-1.229-10.24-0.922-5.837-1.126-57.446-0.307-67.584 1.024-11.776 3.072-30.822 3.686-33.792 0.307-1.126 1.434-7.373 2.56-13.824 5.12-29.594 15.667-64.512 28.058-93.184 35.021-81.306 96.358-152.269 172.032-198.758 57.856-35.635 126.771-58.163 193.024-63.078 13.824-1.024 58.368-1.024 69.632 0 47.821 4.403 88.064 14.029 129.741 30.925 20.992 8.602 48.026 22.323 64.819 33.075 16.691 10.65 35.43 23.962 44.134 31.334 2.048 1.741 5.939 5.018 8.704 7.27 12.288 10.138 31.846 29.491 45.466 45.056 57.344 65.741 91.955 142.438 103.936 230.4 0.307 1.741 0.717 6.349 1.126 10.24 0.307 3.994 0.819 8.294 1.126 9.728 0.922 4.608 1.126 57.549 0.205 67.584-1.126 13.926-2.97 29.389-3.994 35.328-0.512 2.867-1.434 8.090-2.048 11.776-8.397 47.514-28.467 101.274-53.35 142.541-6.042 9.933-16.794 26.726-18.637 28.979-0.41 0.614-4.198 5.632-8.499 11.264-56.32 75.366-137.216 130.97-228.762 157.082-23.040 6.554-51.2 11.981-72.704 14.029-3.686 0.307-7.987 0.819-9.728 1.126-3.379 0.512-61.542 1.331-62.157 0.819zM545.792 805.069c1.434-0.205 5.12-0.717 8.192-1.126 42.394-5.325 78.541-15.974 116.224-34.406 64.614-31.744 119.091-83.251 154.931-146.944 22.016-39.219 38.298-89.498 42.701-132.096 0.41-3.379 0.819-7.27 1.126-8.704 0.205-1.434 0.717-9.626 1.024-18.125l0.717-15.667h-256.307v-230.4h-76.8v153.6h-51.2v-153.6h-76.8v230.4h-256.205l0.614 14.131c1.638 39.526 9.318 77.722 22.63 112.538 5.427 14.131 4.608 12.186 13.619 31.027 30.822 63.795 82.022 118.17 144.589 153.805 38.912 22.118 83.968 37.581 125.952 43.213 1.946 0.307 5.222 0.717 7.168 1.024 1.946 0.205 7.27 0.819 11.776 1.126 4.506 0.41 8.397 0.922 8.602 1.126 0.41 0.41 54.272-0.41 57.446-0.922zM500.736 754.586c-13.005-2.662-22.528-6.451-31.744-12.698-14.848-10.138-25.702-25.088-30.925-42.803-3.072-10.445-3.277-28.877-0.41-39.834 7.066-27.648 30.31-49.971 58.47-55.91 9.114-1.946 26.419-1.638 35.328 0.717 35.226 9.318 59.392 42.906 57.037 78.95-0.717 10.65-2.56 18.227-6.451 26.726-9.83 21.606-28.058 36.762-52.122 43.315-4.506 1.331-25.19 2.355-29.184 1.536zM489.984 573.338c-20.787-4.71-35.533-12.902-50.176-27.546-14.029-14.029-21.811-27.75-27.341-48.128-1.536-5.53-2.15-11.981-2.56-28.365l-0.614-21.299h205.414l-0.614 21.299c-0.614 22.733-2.253 31.846-8.397 45.568-19.558 44.339-68.915 69.222-115.712 58.47z" />
<glyph unicode="&#xe90e;" glyph-name="accessibility_cognition" d="M463.565 854.938c-0.102-0.102-4.813-0.41-10.445-0.717-112.128-6.758-213.504-81.92-252.928-187.597-13.722-36.864-19.046-67.994-18.432-108.032 0.41-23.859 1.126-31.232 4.71-50.176 7.168-38.195 23.654-78.029 45.363-109.568 6.554-9.421 15.974-39.834 18.534-59.392 0.307-2.56 1.024-7.782 1.434-11.776 0.512-3.891 1.024-59.904 1.024-124.314 0.102-103.014 0.307-117.862 1.741-123.392 4.608-17.818 18.125-31.846 35.738-37.069 5.734-1.741 15.36-1.843 153.395-1.946h147.149v63.693c0 35.123 0.307 63.795 0.819 63.898 0.41 0.102 29.798 0.205 65.229 0.307 58.573 0.205 65.126 0.41 70.656 2.048 16.179 4.813 27.648 15.667 34.611 32.666 2.253 5.222 2.253 6.554 2.765 80.077l0.512 74.752h28.672c26.726 0.102 28.979 0.307 33.28 2.253 9.216 4.301 15.36 13.619 15.36 23.347-0.102 8.806 3.277 3.584-59.085 91.648l-18.534 26.112-0.512 44.544c-0.307 24.474-0.819 46.592-1.229 49.152-6.246 45.466-18.739 82.432-39.731 117.248-32.768 54.477-81.613 96.461-140.39 120.832-19.558 8.090-49.050 16.077-68.198 18.534-2.56 0.307-5.632 0.717-6.963 0.922-6.963 1.126-43.52 2.765-44.544 1.946zM496.128 797.696c35.226-3.174 72.909-16.384 102.912-36.045 34.509-22.733 62.362-54.272 80.384-90.931 11.264-22.938 14.234-34.202 14.234-55.296 0.102-15.155-0.819-20.582-5.222-32.768-4.096-11.059-9.011-19.149-19.251-31.13-3.277-3.789-17.613-14.234-23.962-17.408-14.336-7.168-27.443-9.83-44.749-9.011-9.216 0.41-14.336 1.229-20.89 3.277-16.486 5.222-22.016 6.349-31.334 6.554-32.461 0.717-59.494-13.517-78.438-41.062-16.998-24.678-37.069-40.55-63.488-49.766-32.563-11.571-70.144-8.294-100.659 8.602-7.885 4.301-22.938 15.974-28.774 22.016-18.227 19.354-31.13 46.080-33.69 70.144-0.41 3.277-0.922 7.168-1.229 8.602s-0.717 11.981-0.922 23.552c-0.307 22.221 0.819 31.642 6.656 53.35 9.933 36.864 31.232 73.011 59.494 100.864 41.882 41.37 91.443 62.464 157.696 67.277 5.325 0.41 23.040-0.102 31.232-0.819z" />
<glyph unicode="&#xe90f;" glyph-name="accessibility_dexterity" d="M310.682 799.232c-14.336-3.174-25.907-16.691-26.829-31.539-0.512-7.885 1.126-14.541 5.53-21.197 1.741-2.765 46.387-48.23 99.123-100.864 102.502-102.4 98.816-98.304 95.846-105.472-2.458-6.042-10.035-8.909-15.667-6.042-1.229 0.614-53.043 51.917-115.2 113.971-74.24 74.138-114.381 113.562-117.248 114.995-17.408 9.216-38.81 1.946-47.616-16.077-2.253-4.71-2.765-6.963-2.765-14.336 0-16.384-8.909-6.349 118.374-133.632 62.054-61.952 113.357-113.869 114.176-115.2 4.608-8.397-3.789-18.33-13.517-15.974-1.946 0.512-32.768 30.618-99.635 97.485-53.248 53.146-98.714 97.792-100.966 99.123-16.691 9.933-40.038 2.355-48.538-15.77-2.15-4.608-2.56-7.168-2.662-14.336 0-16.077-8.909-6.042 119.603-134.656 97.894-97.792 114.176-114.586 114.79-117.658 1.536-7.987-5.222-14.95-13.21-13.517-3.379 0.717-11.366 8.294-68.71 65.638-73.626 73.626-70.042 70.656-85.402 70.656-7.27 0-9.626-0.41-14.336-2.662-18.534-8.704-25.805-31.232-15.77-48.742 2.97-5.12 212.787-215.245 225.894-226.202 34.714-28.979 77.21-46.899 123.494-52.019 11.776-1.331 40.858-1.434 49.357-0.205 2.56 0.41 7.987 1.229 12.083 1.843l7.578 1.126 39.526-39.526c37.581-37.376 39.936-39.526 45.056-41.062 6.246-1.843 13.005-1.331 18.944 1.229 5.018 2.253 153.498 150.426 156.672 156.365 2.97 5.53 3.072 16.691 0.205 22.426-1.229 2.56-16.691 18.739-40.243 42.394l-38.298 38.298 0.819 3.789c0.41 2.048 0.819 4.403 0.922 5.222s0.41 3.174 0.819 5.12c2.048 11.264 2.867 37.786 1.638 49.766-0.41 3.891-1.024 9.83-1.331 13.21-1.024 9.523-5.222 28.672-8.806 39.936-8.704 27.136-20.48 49.357-38.707 73.216-8.499 11.162-165.581 168.653-173.261 173.773-24.474 16.384-58.778 4.71-68.506-23.245-4.198-12.083-3.584-23.757 1.946-35.533 3.072-6.349 6.963-10.65 47.616-51.507 34.202-34.304 44.442-45.261 45.056-47.718 1.536-7.782-5.018-14.438-13.107-13.414-3.891 0.512-11.264 7.68-125.542 121.856-79.667 79.667-122.88 122.061-125.542 123.392-7.066 3.482-16.589 4.813-23.654 3.277z" />
<glyph unicode="&#xe910;" glyph-name="accessibility_hearing" d="M486.298 840.806c-0.205-0.205-3.891-0.614-8.090-1.024-39.322-3.277-82.33-17.818-117.76-39.834-45.773-28.467-85.606-74.138-105.165-120.422-0.819-1.946-1.434-6.144-1.434-9.318 0.102-22.528 22.63-37.274 43.008-28.16 8.090 3.686 11.981 8.090 18.944 21.709 29.389 57.446 83.558 98.714 146.125 111.514 16.486 3.277 23.245 3.994 41.882 3.994 25.702 0 38.81-1.741 61.133-8.192 34.099-9.933 66.355-29.491 92.16-55.91 10.752-10.957 17.306-19.251 26.112-32.666 6.451-9.83 19.251-34.202 19.251-36.659 0-0.614 0.922-3.277 2.15-5.939 3.072-7.373 8.806-30.106 10.65-42.906 3.174-21.402 2.355-50.278-2.048-72.090-5.632-27.648-18.637-57.651-33.69-77.619-8.499-11.162-17.715-23.245-42.701-55.603-7.68-9.83-16.384-21.197-19.456-25.19s-23.245-30.208-44.954-58.266c-21.709-28.058-41.779-54.067-44.544-57.754-5.018-6.554-27.546-35.738-37.99-49.254-2.867-3.686-13.824-17.92-24.371-31.744-22.016-28.57-26.010-33.075-35.635-39.526-47.104-31.539-109.875-5.632-121.856 50.278-0.614 2.97-1.229 20.992-1.331 43.11l-0.307 38.093-2.56 5.632c-7.475 16.282-25.395 22.835-41.267 15.053-7.885-3.891-12.902-9.523-15.565-17.306-1.741-5.222-1.843-9.011-1.741-44.134 0.205-38.502 0.41-42.906 3.174-55.296 12.8-57.446 59.392-100.864 117.146-109.056 28.672-3.994 57.446 0.614 83.354 13.517 9.011 4.506 13.414 7.373 23.757 15.36 10.445 7.987 17.51 15.667 33.894 36.966 7.27 9.421 16.384 21.197 20.275 26.317 3.994 5.12 26.317 34.099 49.664 64.41s46.694 60.416 51.712 67.072c5.12 6.554 21.402 27.75 36.352 47.104s28.058 36.352 29.184 37.786c1.126 1.536 10.752 14.029 21.402 27.853 21.914 28.365 26.624 35.533 36.454 55.808 24.269 50.176 32.358 104.55 23.962 160.768-2.15 14.336-8.090 37.888-12.902 51.2-9.318 25.907-28.262 59.29-45.363 79.872-45.158 54.579-103.731 87.45-175.104 98.406-9.011 1.434-54.784 3.072-55.91 2.048zM499.61 721.101c-0.205-0.307-3.174-0.717-6.554-1.024-20.582-1.946-45.773-10.752-64.512-22.426-30.618-19.251-54.886-50.586-65.843-84.787-5.427-17.101-6.656-24.576-6.963-44.544-0.307-22.323 1.434-33.997 8.294-54.579 7.066-21.197 7.885-25.088 8.294-39.117 0.41-15.667-0.922-22.835-7.68-42.906-8.192-23.962-8.704-41.165-2.048-60.109 9.523-27.136 30.208-47.002 56.73-54.682 48.742-14.131 98.509 16.589 108.032 66.56 1.536 7.68 1.536 22.938 0 30.31-3.584 18.432-12.186 34.202-25.19 46.592-8.192 7.68-14.029 11.469-26.624 17.408-14.643 6.861-24.166 13.517-33.178 23.142-12.39 13.21-19.251 26.317-23.654 44.851-2.662 11.264-2.15 32.358 1.126 44.032 8.806 32.461 34.816 58.163 67.482 66.765 13.619 3.686 33.382 3.789 46.182 0.512 34.202-9.011 60.006-34.918 69.222-69.427 1.434-5.325 1.843-10.854 1.946-22.426 0-17.306-0.819-21.606-7.782-38.605-3.174-7.987-4.096-11.674-4.096-16.589-0.102-9.933 4.608-19.149 12.8-24.986 11.366-8.192 27.546-7.066 38.605 2.662 7.27 6.349 16.691 30.618 20.378 52.019 13.21 78.541-35.84 155.034-113.152 176.026-5.018 1.434-12.39 2.97-16.384 3.584-7.373 1.126-34.611 2.458-35.43 1.741z" />
<glyph unicode="&#xe911;" glyph-name="accessibility_mobility" d="M425.984 866.406c-32.256-5.939-59.494-26.419-74.035-55.398-19.149-38.195-11.981-85.606 17.408-115.814 15.155-15.77 28.365-23.347 51.507-29.696 5.12-1.434 10.445-1.843 22.528-1.843 14.029 0 16.998 0.307 26.010 2.765 58.061 15.872 89.907 75.366 70.758 132.403-10.65 31.642-37.274 56.422-70.349 65.536-11.981 3.174-32.154 4.198-43.827 2.048zM433.664 636.826c-11.059-2.253-14.131-3.072-19.456-5.222-18.33-7.68-34.099-23.347-41.37-41.062-5.939-14.438-5.734-9.523-5.734-120.013v-101.888l2.355-7.475c3.482-11.162 6.758-17.715 12.698-25.498 6.451-8.602 10.752-12.698 19.251-18.227 9.933-6.554 20.378-10.445 32.256-12.186 1.741-0.205 44.339-0.512 94.72-0.512l91.648-0.205 30.72-49.254c16.896-27.034 32.358-51.814 34.406-54.989 1.946-3.174 13.926-22.323 26.522-42.598 25.293-40.55 30.31-47.002 41.472-52.224 8.090-3.789 10.957-4.608 19.763-5.325 14.848-1.126 21.197 1.331 53.146 21.606l20.685 13.005-4.915 7.885c-2.662 4.301-19.558 31.437-37.478 60.109-17.92 28.774-33.997 54.579-35.84 57.344-1.843 2.867-15.667 24.986-30.72 49.152-15.053 24.269-28.467 45.67-29.696 47.616s-4.301 6.861-6.861 10.752c-11.571 18.33-13.722 21.402-18.944 26.112-6.554 5.939-15.872 10.65-24.269 12.186-3.994 0.717-29.082 1.126-71.987 1.126h-65.843v71.68h68.915c75.981 0 74.65-0.102 84.275 6.451 13.005 8.704 18.637 24.576 14.131 39.629-3.072 10.24-9.523 17.613-19.866 22.426l-5.632 2.662-141.824 0.614v8.704c0 37.478-24.474 68.301-60.416 76.288-7.885 1.741-20.685 2.355-26.112 1.331zM322.662 523.162c-81.818-40.858-134.554-117.453-144.282-209.306-0.922-9.011-0.922-39.424 0.102-50.074 4.608-50.688 25.702-101.069 59.494-141.926 12.902-15.565 38.4-38.707 54.067-48.947 32.256-20.992 61.952-33.178 97.587-40.038 18.637-3.584 21.914-3.789 45.568-4.198 27.75-0.41 41.779 1.229 68.096 7.885 34.304 8.602 64.717 23.347 94.208 45.773 9.421 7.168 12.39 9.83 25.6 23.040s21.299 22.835 30.31 35.942c6.042 8.602 18.33 29.696 18.33 31.232 0 0.512-5.222 9.216-11.469 19.251-6.349 10.138-15.258 24.371-19.763 31.744s-8.397 13.414-8.704 13.414c-0.307 0.102-2.048-4.608-3.891-10.342-3.994-12.595-15.462-36.352-22.426-46.592-30.515-45.363-73.83-74.854-126.362-86.221-13.312-2.867-21.504-3.584-39.322-3.686-26.010 0-42.189 2.458-64.512 9.83-67.277 22.221-118.682 80.282-132.608 149.504-3.072 15.258-3.584 21.914-3.482 41.882 0.205 47.104 15.565 89.293 46.182 126.157 12.493 15.053 33.587 33.28 49.050 42.291l6.554 3.891v33.587c0 27.853-0.205 33.69-1.434 33.69-0.717 0-8.294-3.482-16.896-7.782z" />
<glyph unicode="&#xe912;" glyph-name="accessibility_speech" d="M321.536 658.432c-47.411-5.939-92.058-25.19-136.192-58.88-25.19-19.251-55.808-49.254-79.872-78.336-4.198-5.018-7.885-9.421-8.192-9.728-2.97-2.765-31.232-40.858-40.243-54.17l-5.837-8.602 3.174-5.734c5.427-9.728 21.914-33.997 29.696-43.622 37.069-45.978 89.293-89.395 148.992-124.006 13.21-7.578 36.864-19.763 49.562-25.498 5.939-2.662 12.595-5.632 14.848-6.656 41.574-18.534 104.96-35.942 147.968-40.448 3.072-0.307 6.554-0.819 7.68-1.024 10.138-2.048 82.227-2.867 104.448-1.229 18.842 1.434 49.869 5.939 65.024 9.523 30.618 7.168 34.304 8.192 57.344 15.77 15.667 5.222 37.274 13.312 47.411 17.818 38.912 17.306 66.97 32.563 97.997 53.146 38.605 25.702 77.107 58.982 102.912 88.781 2.662 3.072 6.144 7.066 7.578 8.704 8.090 9.011 22.426 29.491 31.437 44.851 6.246 10.547 6.656 8.397-3.994 23.552-19.456 28.058-47.411 63.078-65.536 82.33-62.874 66.867-121.139 101.683-188.621 112.538-17.613 2.867-48.64 2.662-64-0.41-27.341-5.53-55.706-17.818-84.992-36.966-3.072-1.946-5.837-3.891-6.144-4.198-1.331-1.536-15.258-10.035-18.944-11.571-11.264-4.506-22.835-5.632-35.226-3.174-9.216 1.741-15.258 4.608-27.034 12.902-35.43 24.678-70.144 39.731-102.605 44.442-11.162 1.536-35.328 1.536-48.64-0.102zM566.784 505.037c2.253-0.307 9.318-0.819 15.667-1.229 6.451-0.41 12.698-0.819 13.824-1.024 1.229-0.205 5.734-0.614 9.933-1.024 42.701-3.584 97.075-14.234 132.915-26.010 33.075-10.854 55.501-24.371 55.501-33.485 0-2.97-4.301-8.397-9.933-12.39-25.805-18.534-88.883-36.25-159.539-44.749-20.378-2.56-20.89-2.56-30.208-3.277-4.813-0.307-9.83-0.717-11.162-0.922-16.691-2.765-113.459-2.662-142.643 0-54.579 5.018-80.794 9.011-118.579 18.022-49.254 11.674-87.654 29.389-90.829 41.677-2.97 12.083 31.13 29.798 83.046 43.213 30.003 7.782 58.47 12.8 96.358 16.998 2.867 0.307 5.837 0.717 6.656 0.922s6.144 0.717 11.776 1.126c5.632 0.307 11.366 0.819 12.8 0.922 1.434 0.205 9.523 0.717 17.92 1.024 8.499 0.41 15.565 0.922 15.77 1.126 0.512 0.512 85.914-0.41 90.726-0.922z" />
<glyph unicode="&#xe913;" glyph-name="accessibility_vision" d="M480.154 703.59c-0.205-0.205-4.813-0.614-10.138-0.922-73.933-4.813-159.13-32.563-232.96-75.981-47.206-27.75-83.251-55.398-119.296-91.546-24.166-24.269-41.574-45.773-56.525-69.734-11.162-18.022-10.752-16.282-6.246-24.371 9.011-16.282 26.112-40.346 40.858-57.139 75.981-87.245 190.976-155.238 305.050-180.634 13.926-3.072 34.611-6.656 45.056-7.782 3.379-0.307 6.963-0.819 7.885-1.024 10.445-1.946 79.565-2.765 100.659-1.229 97.28 7.168 202.854 48.947 291.738 115.302 36.557 27.341 75.264 65.024 98.611 95.949 8.090 10.752 17.306 24.678 23.347 35.021l4.813 8.397-4.813 8.499c-7.066 12.288-20.787 32.461-28.774 42.496-12.698 15.872-37.171 41.677-52.736 55.706-7.782 6.963-10.445 9.216-19.354 16.691-66.867 55.91-156.058 101.069-236.032 119.501-24.474 5.632-39.117 8.192-56.832 10.138-5.939 0.614-12.083 1.434-13.824 1.638-3.584 0.717-79.77 1.638-80.486 1.024zM537.6 630.374c50.79-7.68 97.178-36.864 125.44-78.95 28.467-42.496 37.99-91.546 27.546-142.746-10.854-53.76-49.971-102.912-101.069-127.078-18.227-8.602-35.84-13.824-55.398-16.384-10.138-1.331-40.038-1.331-47.718 0-20.787 3.482-32.256 6.758-48.435 13.517-38.502 16.179-72.909 48.435-91.75 86.016-10.342 20.787-14.848 35.738-19.046 64.307-0.819 5.325-0.819 32.563 0 37.888 4.198 28.262 8.704 43.622 19.046 64.307 26.317 52.531 79.053 90.624 137.114 98.918 4.198 0.614 8.806 1.331 10.24 1.536 5.018 0.717 36.454-0.205 44.032-1.331zM721.203 592.896c70.144-34.509 132.71-83.968 173.67-137.114 4.608-5.939 5.325-7.373 4.403-9.216-3.994-8.909-43.11-50.483-64.205-68.403-23.552-19.866-57.242-43.52-83.558-58.47-10.854-6.144-46.182-24.269-47.411-24.269-0.307 0 2.97 4.915 7.168 10.957 33.69 48.026 48.845 104.243 44.134 163.123-3.482 43.622-21.606 90.931-48.435 126.157-5.325 6.963-5.734 7.066 14.234-2.765zM310.579 590.643c-16.384-23.040-28.877-48.947-36.147-74.854-13.517-47.923-12.493-98.509 3.072-145.613 7.373-22.528 21.402-49.664 34.406-66.765 2.56-3.379 4.506-6.246 4.301-6.451-0.41-0.512-30.106 14.438-40.755 20.378-56.422 32.051-106.906 73.626-141.517 116.736-4.506 5.53-8.602 11.162-9.216 12.493-1.024 2.048 0 3.686 9.011 14.95 19.661 24.474 52.941 55.808 82.842 78.131 12.8 9.626 39.834 27.443 52.736 34.918 10.65 6.144 45.466 23.962 45.875 23.45 0.205-0.205-1.843-3.482-4.608-7.373zM500.224 560.026c-47.206-4.915-85.709-37.581-98.304-83.354-3.482-12.595-4.403-35.84-1.946-48.64 5.837-30.413 22.938-56.32 47.923-73.011 12.083-8.090 22.528-12.698 36.966-16.384 17.818-4.506 42.496-3.482 60.826 2.458 7.885 2.56 24.781 11.366 31.334 16.282 33.075 24.883 49.152 61.952 45.158 103.936-1.024 10.65-8.192 34.918-9.83 33.075-0.41-0.41-1.536-2.97-2.458-5.734-2.458-6.656-9.626-15.974-15.565-20.378-10.342-7.578-18.842-10.24-31.232-10.138-21.299 0.205-39.834 14.336-46.182 35.226-2.662 9.011-2.253 22.835 1.229 31.437 4.301 11.162 13.619 21.197 25.088 27.034 2.867 1.434 4.915 2.662 4.608 2.662s-5.018 1.126-10.445 2.458c-9.728 2.56-27.955 3.994-37.171 3.072z" />
<glyph unicode="&#xe914;" glyph-name="accessory_headphones" d="M494.49 806.093c-0.205-0.307-4.813-0.717-10.138-1.126-32.461-2.048-74.752-13.926-106.496-29.798-16.486-8.294-17.306-8.704-27.648-15.155-38.093-23.859-73.011-58.47-97.485-96.563-25.6-39.834-42.189-88.166-46.592-136.090-0.512-4.506-0.819-100.352-0.819-212.89v-204.698l6.656-3.379c20.275-10.342 40.448-15.565 62.976-16.384 9.523-0.307 14.848 0 18.842 1.024 18.944 5.12 33.997 20.685 37.888 39.322 0.819 3.891 1.126 38.093 1.126 113.664 0 90.112-0.307 109.158-1.536 113.766-4.403 16.691-16.794 30.413-32.461 35.942-7.68 2.662-9.523 2.867-27.238 2.97l-15.565 0.102 0.102 59.187c0 32.461 0.512 62.566 1.024 66.765 1.741 15.155 2.15 18.022 4.096 27.546 5.734 27.853 16.998 56.422 32.256 81.613 27.034 44.646 69.427 81.51 117.658 102.298 20.992 9.011 46.592 16.282 65.536 18.432 3.379 0.41 7.066 1.024 8.192 1.229 3.994 0.922 43.11 1.126 51.2 0.205 79.565-8.602 147.456-49.971 190.566-116.122 19.046-29.286 31.334-60.518 37.888-96.768 2.662-14.746 2.765-15.053 3.174-79.565l0.512-64.819-15.77-0.102c-17.715-0.102-19.558-0.307-27.238-2.97-16.179-5.734-29.389-20.787-32.87-37.683-0.819-3.891-1.126-38.093-1.126-113.664 0-117.453-0.205-112.845 5.734-125.030 3.686-7.475 14.541-18.33 22.016-22.016 9.728-4.71 15.462-5.734 29.082-5.325 22.016 0.717 43.11 5.939 61.952 15.36l8.704 4.403v204.186c0 112.333-0.307 208.486-0.819 213.709-4.096 48.64-23.45 102.502-51.814 143.565-26.624 38.605-60.518 70.349-99.635 93.082-47.309 27.443-94.31 40.653-148.89 41.677-12.39 0.307-22.733 0.307-23.040 0.102zM171.11 347.853c-22.221-24.166-34.509-48.333-40.653-79.565-2.867-14.029-2.56-43.52 0.512-57.856 6.042-28.672 18.022-52.224 37.478-74.035 4.71-5.427 9.114-10.035 9.728-10.445 0.717-0.41 1.024 36.454 1.024 114.586 0 63.386-0.205 115.302-0.41 115.302s-3.686-3.584-7.68-7.987zM844.8 239.923v-114.995l8.090 8.499c18.534 19.456 31.539 43.11 38.4 69.632 7.168 27.443 5.427 63.693-4.403 90.112-5.837 15.667-14.643 31.642-24.371 43.725-5.939 7.475-15.77 17.92-16.794 17.92-0.512 0-0.922-48.23-0.922-114.893z" />
<glyph unicode="&#xe915;" glyph-name="accessory_shop" d="M485.171 880.026c-26.522-4.198-49.971-13.414-72.602-28.467-36.557-24.371-63.386-62.157-74.138-104.448-2.662-10.752-5.632-31.027-5.632-39.117v-5.018h-153.6l0.307-314.061c0.205-299.315 0.307-314.47 2.048-320.307 8.704-28.672 30.925-49.357 59.699-55.296 6.656-1.331 38.605-1.536 270.95-1.536 231.526 0 264.397 0.205 270.848 1.638 30.106 6.246 53.146 28.979 59.699 58.573 1.946 8.704 2.048 16.691 2.048 320v310.989h-153.6l-0.102 5.427c0 2.867-0.205 6.758-0.41 8.397-0.205 1.741-0.614 5.734-1.024 9.011-3.072 28.774-16.691 61.338-35.942 86.221-27.955 36.147-66.048 59.085-112.538 67.789-12.902 2.355-41.574 2.56-56.013 0.205zM537.395 828.518c25.498-5.632 46.899-17.408 65.229-35.84 21.914-22.016 34.918-50.586 37.069-81.203l0.512-8.499h-256.41l0.614 8.499c2.355 32.051 14.95 59.392 37.581 81.818 21.299 20.992 46.285 33.178 76.186 36.966 6.963 0.922 32.154-0.205 39.219-1.741zM335.155 589.517c4.71-8.602 14.336-14.541 23.757-14.541 5.734 0 13.005 3.174 17.51 7.782 6.758 6.758 7.578 10.752 7.578 38.502v23.45l2.253-1.229c3.891-2.048 11.878-10.138 15.155-15.258 9.728-15.155 10.65-35.738 2.15-51.712-4.198-7.987-15.053-18.432-22.733-21.914-20.582-9.216-41.472-5.939-57.549 9.011-23.040 21.606-20.685 59.597 4.915 78.131l4.096 2.97 0.512-25.907c0.41-22.426 0.717-26.317 2.355-29.286zM641.843 590.848c3.789-8.704 11.469-14.336 20.992-15.462 10.035-1.229 19.763 3.686 24.986 12.698l2.867 4.813 0.307 25.907 0.41 25.805 3.072-1.741c4.301-2.56 13.107-12.288 16.077-17.818 7.168-13.517 7.987-30.31 2.048-44.339-6.349-15.053-20.89-27.034-37.069-30.31-24.371-4.915-48.64 8.806-58.061 32.87-2.765 7.168-3.584 21.811-1.536 29.491 2.97 11.366 10.342 22.426 19.456 28.979l4.096 2.97 0.512-25.395c0.41-17.613 0.922-26.317 1.843-28.467zM539.648 495.718c58.778-11.469 106.598-56.115 120.832-112.64 1.638-6.451 3.379-14.746 3.994-18.637 0.614-4.301 0.922-47.616 0.819-110.899l-0.205-103.936-4.813-2.355c-11.674-5.837-35.226-9.114-43.622-6.042-6.144 2.253-10.854 6.144-14.234 11.674l-2.867 4.813-0.307 56.627c-0.205 37.478 0.102 57.958 0.819 60.621 1.536 5.837 6.963 12.288 12.8 15.258 4.301 2.253 6.656 2.662 16.179 2.97l11.059 0.41-0.41 33.894c-0.205 18.739-0.717 35.635-1.126 37.581-8.499 41.984-32.563 74.854-68.198 93.082-20.275 10.342-38.81 14.643-61.44 13.926-21.094-0.512-32.973-3.379-51.712-12.288-21.299-10.138-41.062-27.238-52.429-45.466-6.451-10.342-13.722-27.034-16.794-38.502l-3.277-12.288-0.41-35.021-0.512-35.123h10.138c5.53-0.102 11.674-0.717 13.722-1.434 5.427-1.946 10.752-6.349 13.926-11.674l2.867-4.813 0.307-56.627c0.205-37.478-0.102-57.958-0.819-60.621-1.536-5.837-6.963-12.288-12.8-15.258-3.891-2.048-6.758-2.662-12.8-2.867-12.083-0.205-30.515 3.994-37.683 8.704l-2.355 1.536 0.41 107.11c0.307 105.677 0.307 107.213 2.56 116.941 3.379 14.643 6.861 24.781 13.005 37.274 21.811 44.646 63.693 75.981 112.64 84.378 14.029 2.458 39.526 2.253 52.736-0.307zM348.16 215.347v-57.446l-2.662 2.458c-4.608 4.301-11.674 14.336-14.746 20.992-13.517 28.877-9.626 60.621 10.24 84.173 3.379 3.994 6.451 7.373 6.656 7.373 0.307 0 0.512-25.907 0.512-57.549zM688.333 258.765c15.667-22.426 17.101-53.453 3.789-79.053-3.891-7.578-13.619-20.48-15.36-20.48-0.512 0-0.922 24.678-0.922 57.139v57.037l4.71-5.12c2.56-2.765 6.042-7.066 7.782-9.523z" />
<glyph unicode="&#xe916;" glyph-name="Add" d="M447.386 855.757c-17.715-4.71-32.87-20.685-36.659-38.912-0.819-3.789-1.126-44.646-1.126-135.885v-130.56l-131.072-0.102c-72.090-0.102-131.379-0.205-131.789-0.307-0.512-0.102-2.662-0.512-4.813-1.024-11.674-2.253-25.6-12.493-32.358-23.757-6.963-11.469-7.066-12.8-7.066-75.776-0.102-36.762 0.307-58.47 1.024-62.464 3.584-19.456 19.968-36.045 39.629-40.243 3.891-0.819 42.906-1.126 135.885-1.126h130.56v-129.843c0-87.859 0.307-131.891 1.126-135.987 3.277-18.432 18.432-34.611 37.069-39.424 6.656-1.741 11.981-1.946 63.181-1.946 35.738 0 58.163 0.41 62.054 1.126 19.354 3.482 36.147 20.070 40.243 39.629 0.819 3.789 1.126 44.646 1.126 135.885v130.56l266.752 0.512 6.042 2.355c16.691 6.349 28.467 19.251 32.87 36.147 1.843 7.066 2.253 114.483 0.41 124.314-3.584 19.763-20.582 36.762-40.243 40.346-4.198 0.819-47.104 1.126-135.987 1.126h-129.843v130.867c0 125.133-0.102 131.277-1.946 138.24-1.024 4.096-3.482 10.035-5.325 13.107-6.861 11.469-20.582 21.197-33.485 23.859-3.584 0.717-24.678 1.126-62.464 1.024-50.483 0-57.856-0.205-63.795-1.741z" />
<glyph unicode="&#xe917;" glyph-name="add_more" d="M486.195 882.688c-0.102-0.102-4.71-0.614-10.035-0.922-5.325-0.41-10.65-0.922-11.776-1.126s-4.096-0.717-6.656-0.922c-11.264-1.331-15.77-2.048-29.696-4.813-120.422-23.859-224.563-96.563-288.256-201.626-19.456-31.949-34.611-66.15-44.954-101.376-4.71-15.974-10.445-40.653-12.39-53.248-1.741-11.674-2.458-17.715-3.072-24.064-0.41-3.891-0.922-8.499-1.229-10.24-0.922-5.837-1.126-57.446-0.307-67.584 1.024-11.162 3.072-30.515 3.686-33.792 0.205-1.126 1.331-7.373 2.56-13.824 7.782-43.418 23.962-89.498 45.158-128.307 30.208-55.296 72.806-104.55 122.88-141.824 53.146-39.526 116.531-67.277 180.531-78.95 12.493-2.253 15.258-2.662 31.744-4.71 17.306-2.15 65.024-2.867 82.432-1.229 59.597 5.53 108.954 19.354 159.744 44.749 6.451 3.174 13.619 6.963 15.872 8.192 2.253 1.331 6.144 3.482 8.704 4.915s10.547 6.451 17.92 11.264c86.733 56.627 150.528 141.619 179.917 239.821 2.253 7.578 4.506 15.462 4.915 17.408 2.97 12.698 8.192 39.219 8.602 43.52 0.307 2.867 0.819 6.042 1.024 7.168s0.717 5.53 1.126 9.728c0.41 4.198 0.922 9.114 1.229 10.752 0.922 6.246 1.126 58.675 0.205 68.096-1.229 13.926-2.97 29.389-3.994 35.328-0.512 2.867-1.434 8.090-2.048 11.776-2.662 15.667-9.523 42.189-15.565 59.904-41.37 121.344-131.379 216.678-250.266 265.114-35.123 14.234-80.384 25.498-116.122 28.877-3.686 0.307-7.987 0.819-9.728 1.126-3.482 0.512-61.542 1.331-62.157 0.819zM571.904 727.859c2.97-0.922 6.758-3.379 9.216-5.939 8.090-7.987 7.68-2.662 7.68-105.677v-91.443h91.546c99.533 0 95.949 0.205 103.731-5.734 1.843-1.331 4.608-4.71 6.144-7.373l2.867-4.813 0.307-56.73c0.307-63.898 0.41-63.386-7.066-70.861-8.192-8.192 0.614-7.578-104.038-7.885l-93.389-0.307-0.614-186.778-2.56-4.506c-2.458-4.301-6.963-8.499-12.288-11.469-2.048-1.126-13.107-1.536-59.29-1.741-64.614-0.307-63.488-0.41-71.373 7.578-7.987 8.294-7.578 2.765-7.578 105.574v91.443h-91.443c-103.014 0-97.69-0.41-105.677 7.68-7.885 7.782-7.782 6.861-7.475 71.27l0.307 56.73 2.765 4.71c1.536 2.56 4.403 5.939 6.349 7.475 7.885 5.939 4.096 5.734 103.629 5.734h91.546l0.205 93.491c0.307 104.858-0.307 95.949 8.090 104.141 7.373 7.066 6.246 6.963 68.096 7.066 48.947 0.102 55.91-0.102 60.314-1.638z" />
<glyph unicode="&#xe918;" glyph-name="Add_person" d="M487.834 881.664c-28.979-4.301-53.76-13.619-77.21-28.979-11.571-7.578-18.022-13.005-29.696-24.678-27.853-28.058-44.749-61.645-51.405-102.502-1.638-10.342-1.638-44.544 0.102-54.272 3.482-20.275 9.114-37.683 17.51-54.477 24.064-48.026 66.97-82.739 118.682-96.154 64.922-16.794 134.144 3.072 179.917 51.61 25.19 26.726 41.574 59.597 48.128 96.461 2.253 12.595 2.56 46.080 0.512 57.856-1.843 11.059-6.758 29.491-9.933 37.581-18.534 47.514-54.067 84.48-100.352 104.243-15.258 6.554-25.498 9.421-47.514 13.312-7.578 1.434-39.424 1.331-48.742 0zM346.624 525.414c-1.126-0.717-6.656-4.301-12.288-7.987-56.218-36.352-94.515-98.406-102.605-166.195-0.41-3.891-0.819-62.259-0.819-129.536v-122.368l2.662-9.728c6.349-22.733 19.456-42.394 37.274-55.808 8.602-6.451 20.275-12.595 29.901-15.77 16.384-5.427 5.632-5.222 258.56-5.222h234.394l-0.41 168.243c-0.205 92.467-0.717 169.984-1.126 172.237-3.072 17.408-6.246 31.846-8.499 38.912-16.998 53.965-51.2 98.509-98.816 128.41-5.427 3.482-10.445 6.246-11.059 6.246s-2.867-1.536-4.915-3.482c-24.986-23.142-63.488-43.827-97.894-52.429-21.299-5.427-34.714-7.066-57.958-7.066-20.992 0-29.901 0.819-47.309 4.198-29.184 5.632-58.573 17.818-83.763 34.509-8.909 5.939-23.962 17.715-27.546 21.606-2.765 2.97-4.71 3.277-7.782 1.229zM660.48 267.469c5.12-3.994 5.12-4.096 5.12-40.858v-34.611h34.304c22.426 0 35.021-0.41 36.659-1.126 5.12-2.355 5.837-5.325 5.837-24.678 0-15.053-0.307-18.125-1.741-20.275-3.482-5.12-2.867-5.018-39.936-5.12h-35.123v-34.406c0-37.376-0.205-38.707-5.837-41.267-3.277-1.536-36.25-1.536-39.526 0-5.632 2.56-5.837 3.891-5.837 41.267v34.406h-34.406c-37.376 0-38.707 0.205-41.267 5.837-1.536 3.482-1.536 36.25 0.102 39.731 2.458 5.427 3.994 5.632 41.267 5.632h34.304v34.304c0 22.221 0.41 35.021 1.126 36.659 2.355 5.12 5.018 5.734 24.986 5.734 12.902 0 18.944-0.307 19.968-1.229z" />
<glyph unicode="&#xe919;" glyph-name="address_book" d="M204.8 793.6v-64l-15.565-0.102c-17.715-0.102-19.558-0.307-27.238-2.97-28.365-10.035-41.779-43.008-28.672-70.554 6.246-13.107 20.992-24.678 35.43-27.648 2.97-0.614 12.288-1.126 20.685-1.126h15.36v-128h-15.36c-8.397 0-17.715-0.512-20.685-1.126-23.142-4.813-40.755-26.522-40.755-50.074 0-23.757 18.227-45.875 41.37-50.074 3.379-0.614 12.698-1.126 20.787-1.126h14.643v-128h-15.36c-8.397 0-17.715-0.512-20.685-1.126-17.101-3.584-31.949-16.691-37.786-33.28-9.216-26.112 5.018-55.706 31.027-64.922 7.68-2.662 9.523-2.867 27.238-2.97l15.565-0.102v-28.365c0-15.667 0.512-31.437 1.126-35.123 5.018-31.744 28.774-56.115 61.235-62.874 6.656-1.331 45.056-1.536 318.157-1.638h310.682l-0.205 377.549-0.307 377.651-2.15 7.168c-7.168 23.654-23.45 42.189-44.646 50.893-15.77 6.349 7.782 5.939-333.005 5.939h-310.886v-64zM574.464 700.826c40.55-11.776 67.379-49.050 65.229-90.522-0.717-13.21-3.277-23.142-8.909-35.021-11.059-22.835-33.485-41.165-58.368-47.514-12.698-3.277-32.051-3.277-44.032-0.102-31.949 8.704-55.603 32.154-64.717 64.205-1.843 6.758-2.253 10.752-2.253 23.040 0 15.565 1.229 21.914 6.861 35.328 11.059 26.317 35.533 45.978 65.229 52.326 9.83 2.048 31.027 1.229 40.96-1.741zM577.536 496.64c46.49-9.933 84.582-41.165 102.4-83.763 5.018-11.981 8.806-26.317 10.24-38.298 0.614-5.325 1.024-44.134 1.024-95.846v-86.733l-242.176 0.512-5.427 2.253c-16.998 6.963-29.389 21.299-32.87 38.093-1.536 7.373-1.536 130.355 0 142.438 8.090 63.078 56.013 112.333 119.194 122.47 10.752 1.638 37.478 1.126 47.616-1.126z" />
<glyph unicode="&#xe91a;" glyph-name="administrator" d="M487.834 881.664c-28.979-4.301-53.76-13.619-77.21-28.979-11.571-7.578-18.022-13.005-29.696-24.678-27.853-28.058-44.749-61.645-51.405-102.502-1.638-10.342-1.638-44.544 0.102-54.272 3.482-20.275 9.114-37.683 17.51-54.477 24.064-48.026 66.97-82.739 118.682-96.154 64.922-16.794 134.144 3.072 179.917 51.61 25.19 26.726 41.574 59.597 48.128 96.461 2.253 12.595 2.56 46.080 0.512 57.856-1.843 11.059-6.758 29.491-9.933 37.581-18.534 47.514-54.067 84.48-100.352 104.243-15.258 6.554-25.498 9.421-47.514 13.312-7.578 1.434-39.424 1.331-48.742 0zM346.624 525.414c-1.126-0.717-6.656-4.301-12.288-7.987-56.218-36.352-94.515-98.406-102.605-166.195-0.41-3.891-0.819-62.259-0.819-129.536v-122.368l2.662-9.728c6.349-22.733 19.456-42.394 37.274-55.808 8.602-6.451 20.275-12.595 29.901-15.77 16.384-5.427 5.632-5.222 258.56-5.222h234.394l-0.41 168.243c-0.205 92.467-0.717 169.984-1.126 172.237-3.072 17.408-6.246 31.846-8.499 38.912-16.998 53.965-51.2 98.509-98.816 128.41-5.427 3.482-10.445 6.246-11.059 6.246s-2.867-1.536-4.915-3.482c-24.986-23.142-63.488-43.827-97.894-52.429-21.299-5.427-34.714-7.066-57.958-7.066-20.992 0-29.901 0.819-47.309 4.198-29.184 5.632-58.573 17.818-83.763 34.509-8.909 5.939-23.962 17.715-27.546 21.606-2.765 2.97-4.71 3.277-7.782 1.229zM602.214 293.376c1.126-0.614 3.686-4.608 5.734-8.806 5.018-10.24 7.987-12.083 19.251-12.186 11.162 0 14.234 1.946 19.251 12.288 4.301 8.602 6.554 10.24 13.517 9.421 5.018-0.614 16.896-5.018 21.914-8.090 8.602-5.325 9.83-9.011 6.246-18.227-2.56-6.349-2.662-12.902-0.205-16.486 8.397-12.595 15.872-15.667 27.648-11.162 7.578 2.867 10.752 2.662 14.438-1.024 5.12-5.222 12.39-22.63 12.39-29.901 0-4.915-1.843-6.861-9.728-10.65-10.24-4.813-12.288-8.090-12.288-19.354 0-11.059 2.15-14.438 11.571-18.944 8.090-3.891 10.342-6.349 10.445-11.366 0-6.963-7.373-24.576-12.493-29.696-3.584-3.584-6.861-3.789-14.131-0.922-5.734 2.253-12.288 2.662-15.667 0.922-3.277-1.638-10.854-9.216-12.595-12.39-2.048-3.891-1.741-10.035 0.614-16.179 2.867-7.27 2.662-10.547-1.024-14.234-6.554-6.451-25.702-13.517-32.563-11.776-3.379 0.819-4.198 1.741-7.68 8.602-5.53 10.752-8.602 12.8-19.661 12.8-10.854 0-14.438-2.15-19.046-11.776-3.686-7.68-6.246-10.138-10.752-10.24-7.373 0-24.678 7.066-29.901 12.186-3.891 3.891-4.096 6.554-1.229 14.746 3.584 10.24 2.458 15.565-5.12 22.938-6.963 6.861-12.493 7.885-22.835 4.198-10.445-3.584-14.029-1.536-20.48 11.776-4.403 9.011-6.554 18.432-5.222 22.733 0.819 2.458 2.662 3.891 8.602 6.963 10.65 5.325 12.8 8.602 12.8 19.558 0 11.264-1.843 14.029-12.493 19.558-6.758 3.482-8.090 4.608-8.909 7.373-1.843 6.758 5.222 26.419 11.878 33.075 3.584 3.686 6.861 3.891 14.336 1.024 10.035-3.789 15.462-2.56 23.040 5.325 6.963 7.168 8.090 13.005 4.403 22.323-1.126 2.867-2.048 6.554-2.048 8.192 0 3.686 4.915 8.806 11.264 11.674 13.722 6.144 22.323 7.987 26.726 5.734zM615.936 232.55c-23.757-5.53-40.858-24.986-42.803-48.742-3.584-41.882 40.346-71.987 78.131-53.453 28.467 13.824 39.117 49.254 22.938 76.698-11.469 19.558-36.557 30.515-58.266 25.498z" />
<glyph unicode="&#xe91b;" glyph-name="Adultcode" d="M496.64 908.493c-0.307-0.307-3.584-0.717-7.27-1.126-23.45-2.15-50.176-10.342-72.602-22.323-46.387-24.678-81.51-65.843-98.714-115.712-4.198-12.186-8.397-30.413-9.318-41.267-0.41-3.994-0.819-8.499-1.024-10.24-0.205-1.638-0.41-45.773-0.41-97.997l-0.102-95.027h-102.4l0.307-237.261c0.205-221.184 0.41-237.773 2.048-243.098 8.397-27.546 27.238-46.49 54.886-54.886 5.325-1.638 23.654-1.843 281.498-2.048l275.661-0.307-0.307 237.261c-0.205 224.461-0.307 237.67-2.048 243.302-7.27 23.859-24.269 42.906-45.773 51.507-14.541 5.734-7.578 5.53-205.107 5.53h-181.965l0.102 96.051 0.102 95.949 2.355 11.674c4.71 22.528 12.39 38.707 27.238 56.934 26.931 33.178 70.963 50.893 113.152 45.568 29.184-3.584 54.784-16.282 75.674-37.274 20.378-20.48 32.358-45.158 36.762-75.878 0.205-1.638 0.512-34.304 0.512-72.397l0.102-69.427h76.8l-0.102 71.475c-0.102 75.264-0.307 80.179-5.018 101.581-11.162 50.278-43.11 96.358-87.142 125.747-23.040 15.462-49.766 25.907-80.282 31.437-8.294 1.536-46.49 3.277-47.616 2.253zM293.171 344.576c6.963-2.56 9.626-5.427 22.221-23.552 5.632-8.192 10.65-14.95 11.162-15.155 0.41-0.102 5.018 5.837 10.138 13.414 12.39 18.022 15.565 21.606 22.323 24.883 4.813 2.355 6.451 2.662 12.083 2.253 15.258-1.229 26.214-12.8 26.214-27.546 0-6.656-2.765-11.776-19.149-35.43-8.602-12.493-16.077-23.859-16.589-25.19-1.126-2.97-1.434-2.458 15.667-27.341 19.866-28.672 21.402-32.154 19.046-43.52-2.355-11.264-12.39-19.558-25.19-20.685-11.469-1.024-18.33 3.584-29.594 20.173-10.854 15.77-14.234 20.48-14.746 20.48-0.41 0-5.427-6.963-11.366-15.462s-12.493-16.998-14.541-18.944c-7.475-6.656-20.48-8.294-29.594-3.584-6.144 3.174-8.909 5.837-11.776 11.571-5.222 10.24-4.198 19.251 3.482 30.822 2.662 4.096 9.933 14.643 16.077 23.552 15.155 21.709 14.438 20.48 13.005 23.45-1.126 2.048-6.349 9.728-25.702 37.274-8.499 11.981-9.83 15.36-9.83 23.45 0 5.939 0.512 8.090 3.072 12.595 6.861 12.493 20.173 17.51 33.587 12.493zM476.262 345.088c7.27-2.458 11.366-6.656 23.142-23.654 5.939-8.602 11.162-15.77 11.571-15.77s3.584 4.301 7.168 9.523c9.933 14.438 10.445 15.155 15.155 20.89 15.667 19.046 45.158 10.445 48.026-13.926 0.922-8.192-1.741-14.131-14.336-32.358-23.552-33.792-22.426-31.846-20.685-36.045 0.819-1.946 2.867-5.222 4.403-7.27 5.222-6.758 25.6-36.762 27.648-40.858 6.861-13.517 1.229-30.31-12.186-36.045-11.059-4.813-21.299-3.686-29.184 3.174-1.843 1.638-8.397 10.138-14.336 18.842-6.042 8.704-11.366 15.667-11.776 15.565-0.41-0.205-5.734-7.475-11.878-16.179-6.656-9.523-12.8-17.101-15.36-19.046-12.493-9.523-30.822-5.837-38.912 7.68-6.349 10.547-5.53 20.173 2.56 32.256 9.114 13.619 23.142 33.894 26.522 38.502 3.994 5.222 3.891 7.475-0.614 13.21-1.536 2.048-6.758 9.421-11.571 16.486-20.582 30.208-21.299 31.539-21.299 38.81 0 18.637 18.534 32.154 35.942 26.214zM662.323 345.088c8.602-2.56 10.65-4.915 29.901-32.973 2.458-3.584 4.71-6.451 5.12-6.451s4.096 4.915 8.192 11.059c11.571 16.896 15.053 21.402 18.944 24.371 13.21 10.035 32.461 5.734 40.141-9.114 2.253-4.301 2.765-6.758 2.867-12.493 0-9.728-0.922-11.366-26.522-47.411-3.891-5.427-7.68-11.366-8.397-13.21-1.536-3.584-2.458-2.048 21.197-36.147 10.445-15.155 13.005-20.070 13.824-26.931 1.741-14.746-9.626-27.546-25.907-29.082-6.554-0.614-13.21 1.536-18.33 6.144-1.946 1.638-8.499 10.138-14.438 18.739-6.042 8.704-11.162 15.77-11.571 15.77-0.307 0-5.325-6.861-11.162-15.258-12.186-17.715-15.053-20.685-22.426-23.552-6.349-2.56-11.264-2.662-18.227-0.614-13.619 3.994-21.914 20.173-17.306 33.792 1.741 5.018 3.891 8.294 25.293 39.219 11.162 15.974 11.162 15.974 5.939 22.733-9.216 12.083-30.208 44.134-31.437 48.128-4.096 13.21 4.301 29.184 17.408 33.382 5.837 1.741 10.547 1.741 16.896-0.102z" />
<glyph unicode="&#xe91c;" glyph-name="Adult" d="M496.128 907.776c-2.765-0.41-6.963-1.024-9.216-1.331-8.294-1.229-25.088-6.758-34.406-11.366-12.39-6.042-14.95-7.475-23.654-14.029-30.72-22.835-50.074-55.296-55.91-94.106-0.922-5.939-0.922-31.949 0-37.888 4.813-31.539 18.022-58.163 40.141-80.384 20.173-20.173 44.237-33.075 73.318-39.117 12.186-2.56 40.141-2.56 52.224 0 29.082 6.144 52.736 18.739 73.216 39.117 19.456 19.354 32.87 43.725 38.502 70.451 2.355 10.854 3.277 33.997 1.946 45.773-6.246 52.634-42.598 97.997-92.672 115.712-14.95 5.222-26.829 7.373-43.52 7.68-8.192 0.102-17.101-0.102-19.968-0.512zM378.163 630.374c-23.040-13.722-39.834-29.491-55.706-52.326-3.891-5.632-5.734-9.011-11.059-19.968-7.68-15.872-12.083-30.31-14.848-48.64-1.843-12.493-2.355-137.114-0.512-150.016 4.813-35.328 37.069-64 72.909-64.922l2.765-0.102v-117.76c0-80.998 0.307-119.398 1.126-123.085 3.789-18.637 18.944-34.202 38.093-39.322 7.066-1.843 192.922-2.15 201.626-0.307 18.637 3.994 35.84 20.787 39.322 38.298 0.512 2.253 0.922 4.403 1.024 4.915 0.102 0.41 0.205 53.862 0.307 118.886l0.102 118.067 6.963 0.717c32.461 3.277 57.139 23.962 67.379 56.525 1.843 5.632 1.946 10.752 1.946 77.722 0 80.282 0 79.872-5.325 100.352-7.578 28.877-21.299 52.429-43.725 74.752-11.981 11.981-29.082 24.781-39.731 29.798l-3.789 1.741-4.403-3.994c-7.27-6.656-16.077-13.107-26.931-19.558-19.046-11.264-35.635-17.715-58.47-22.426-11.674-2.458-15.667-2.765-33.69-2.867-22.016-0.102-31.539 1.126-50.176 6.246-24.064 6.656-48.742 19.763-67.686 35.84-4.096 3.584-7.885 6.451-8.294 6.451s-4.608-2.253-9.216-5.018z" />
<glyph unicode="&#xe91d;" glyph-name="advertising" d="M321.638 662.323c-126.362-126.464-209.408-210.227-212.275-214.323-13.414-18.842-19.558-38.298-19.456-60.621 0.102-21.402 7.27-42.394 20.173-59.699 7.578-10.138 279.040-280.781 286.31-285.491 12.698-8.192 27.238-14.029 40.141-16.077 9.114-1.434 23.962-1.434 32.973 0 16.384 2.56 35.43 11.162 47.616 21.402 3.072 2.56 98.406 97.382 211.661 210.739l206.131 206.029v180.019c0 197.939 0.307 186.675-6.246 198.963-3.994 7.578-12.902 16.384-20.48 20.48-12.083 6.451-2.458 6.144-199.373 6.144h-179.507l-207.667-207.565zM831.59 790.221c18.227-8.806 28.467-24.883 28.57-44.749 0-13.21-5.12-25.293-14.746-34.816-18.33-18.33-46.182-19.661-66.458-3.072-21.811 17.715-23.859 50.586-4.608 71.68 10.035 10.957 22.733 16.077 38.81 15.565 9.011-0.41 10.445-0.717 18.432-4.608zM550.81 664.166l22.835-22.835 9.933 2.662c5.427 1.434 20.173 5.325 32.87 8.704 12.595 3.379 23.142 5.939 23.45 5.734 0.41-0.512 14.131-50.688 16.589-61.030l1.229-4.608 8.294-2.253c4.506-1.229 17.715-4.813 29.286-7.885s22.733-6.144 24.883-6.656c2.97-0.819 3.789-1.536 3.379-2.867-0.205-0.922-3.277-12.288-6.758-25.293-3.379-12.902-6.861-25.805-7.68-28.672-3.277-11.366-5.325-7.987 21.606-34.816l24.269-24.269-48.742-48.742 3.174-11.571c1.741-6.451 5.325-19.456 7.782-29.082 2.56-9.523 5.12-19.046 5.734-20.992 0.512-1.946 0.614-3.891 0.205-4.198-0.41-0.41-6.246-2.253-13.005-3.994-16.077-4.301-41.779-11.162-47.616-12.698-5.325-1.434-3.789 2.458-14.95-39.526-3.789-14.336-7.27-26.522-7.68-26.931-0.614-0.819-9.421 1.331-49.562 12.186l-16.384 4.403-24.269-24.269-24.371-24.269-48.64 48.435-5.12-1.331c-2.765-0.614-17.408-4.506-32.358-8.602-14.95-3.994-27.648-7.27-28.16-7.27s-2.458 5.837-4.403 13.107c-13.722 51.61-14.234 53.453-15.77 53.453-0.717 0-9.523 2.253-19.661 5.018-10.138 2.662-24.269 6.554-31.437 8.397-7.27 1.946-13.107 3.891-13.107 4.403 0 0.922 9.728 37.786 14.438 54.886l2.97 10.752-48.64 48.64 24.269 24.371 24.371 24.269-1.536 5.12c-0.922 2.765-1.741 6.042-2.048 7.168-0.205 1.126-3.482 13.517-7.27 27.546-5.018 18.739-6.554 25.6-5.632 26.112 0.717 0.512 7.782 2.56 15.77 4.71 39.117 10.445 48.333 13.005 48.947 13.619 0.41 0.41 4.403 15.053 9.011 32.461 4.71 17.51 8.704 32.051 9.114 32.461s4.198-0.205 8.397-1.331c4.198-1.126 18.944-5.018 32.666-8.704l24.986-6.758 12.186 12.186c6.656 6.656 17.51 17.51 24.064 24.064 10.138 10.24 12.186 11.878 13.517 10.752 0.922-0.614 11.878-11.571 24.576-24.166z" />
<glyph unicode="&#xe91e;" glyph-name="aeroplane" d="M864.768 832.205c-6.349-0.512-15.565-2.56-23.040-5.018-15.77-5.222-44.442-20.48-61.952-32.87-5.427-3.891-73.83-54.886-139.469-104.141l-39.629-29.798-56.934 19.149c-272.896 91.443-299.827 100.352-304.947 100.454-5.939 0-11.674-1.638-16.077-4.608-4.301-2.97-52.838-51.2-52.429-52.224 0.205-0.819 29.389-18.739 67.277-41.472 6.451-3.789 27.238-16.384 46.080-27.75 18.842-11.469 35.738-21.606 37.376-22.63 1.741-1.024 8.397-5.018 14.848-8.909 12.698-7.68 74.957-45.363 115.507-69.837 13.619-8.192 24.781-15.155 24.781-15.565 0-0.307-3.789-5.222-8.397-10.854-11.264-13.722-54.886-67.174-67.789-83.149-5.734-6.963-16.998-20.787-25.19-30.822s-23.347-28.672-33.792-41.472c-18.637-22.938-48.026-58.982-48.742-59.802-0.307-0.307-94.31 39.424-98.714 41.779-0.819 0.41-9.933 4.403-20.275 8.806-16.998 7.168-19.251 7.885-23.859 7.475-4.915-0.512-5.734-1.024-13.312-8.602-4.403-4.403-7.987-8.499-7.782-8.909 0.41-1.229 286.618-287.437 287.334-287.437 1.229 0 14.541 14.234 15.974 17.101 0.819 1.536 1.536 4.403 1.536 6.246 0 2.867-8.704 24.576-19.456 48.845-6.758 15.258-38.912 90.931-38.912 91.648 0 0.512 3.072 3.379 6.963 6.451 3.789 3.072 18.842 15.258 33.485 27.238s31.846 26.010 38.195 31.13c6.451 5.222 12.186 9.933 12.8 10.445 0.717 0.614 7.475 6.144 15.053 12.288s16.589 13.517 20.070 16.282c3.379 2.867 8.192 6.861 10.65 8.806s7.066 5.632 10.138 8.192c3.174 2.56 9.421 7.68 13.926 11.366 25.395 20.787 47.206 38.502 55.706 45.466 7.885 6.451 9.83 7.578 10.854 6.451 0.614-0.717 8.090-12.8 16.384-26.931 20.89-35.328 62.054-104.448 69.12-116.224 3.277-5.325 18.944-31.642 34.816-58.368 15.974-26.726 33.178-55.808 38.4-64.512s12.698-21.299 16.691-27.955c3.994-6.656 7.578-12.083 8.090-12.083 0.41 0 12.39 11.571 26.624 25.702 27.75 27.648 29.798 30.515 30.72 40.755 0.41 5.53-2.458 14.438-59.392 185.242l-59.904 179.405 64 85.299c67.789 90.419 71.782 95.846 81.408 111.821 20.48 33.792 29.798 63.283 25.293 79.974-1.536 5.837-5.734 11.571-10.65 14.438-4.198 2.458-13.517 4.198-19.456 3.686z" />
<glyph unicode="&#xe91f;" glyph-name="Age-rating_3" d="M0 448v-512h1024v1024h-1024v-512zM1003.52 448v-491.52h-983.040v983.040h983.040v-491.52zM506.368 782.131c-39.117-1.946-84.89-15.565-120.218-35.942-44.339-25.498-73.626-62.976-78.336-100.557-1.024-7.578-0.819-21.606 0.307-27.238 3.891-20.070 19.251-38.4 38.81-46.592 6.349-2.662 9.728-3.379 17.306-3.789 23.552-1.229 40.243 7.885 69.939 38.298 24.474 25.088 36.352 33.178 57.344 39.117 3.584 0.922 9.83 1.536 17.408 1.536 9.83-0.102 13.107-0.512 20.070-2.765 13.312-4.301 24.474-12.493 31.334-23.142 10.138-15.77 9.318-40.55-1.843-57.856-9.933-15.462-25.088-25.293-50.586-32.768-22.733-6.554-38.195-11.981-45.056-15.462-12.083-6.349-20.582-15.872-24.781-27.853-2.048-5.939-2.355-8.909-2.355-21.709 0-12.902 0.307-15.872 2.458-22.323 4.71-14.541 15.667-27.546 28.262-33.485 9.421-4.506 25.088-8.499 39.936-10.24 2.867-0.307 6.963-0.717 9.216-1.024 34.918-4.096 57.446-17.101 67.584-38.912 10.854-23.245 8.602-56.115-5.325-78.336-7.782-12.39-23.45-25.395-37.171-30.72-16.384-6.451-38.298-8.090-53.453-4.198-16.179 4.198-30.515 12.493-43.11 24.986-8.806 8.704-12.186 13.517-26.214 37.888-11.878 20.48-18.022 27.955-27.853 33.792-10.957 6.451-18.739 8.397-34.202 8.294-11.162 0-14.336-0.41-19.968-2.355-9.83-3.482-18.022-8.806-26.624-17.51-17.51-17.408-23.962-37.069-19.968-60.928 5.427-33.382 23.654-65.536 54.374-96.256 26.829-26.829 56.32-44.339 92.774-55.296 9.728-2.867 29.594-7.066 39.219-8.192 3.277-0.41 6.963-0.922 8.192-1.229 3.891-0.819 46.080-1.024 54.784-0.205 38.195 3.686 72.499 14.643 102.605 32.768 41.37 24.986 70.963 60.109 87.347 103.834 5.222 13.926 7.066 21.197 10.24 40.141 2.458 15.053 2.765 42.598 0.614 57.651-7.987 53.965-37.581 94.925-92.058 127.795-5.837 3.482-10.957 6.349-11.469 6.349-2.048 0-0.922 1.946 2.355 4.198 6.861 4.915 21.197 17.51 27.75 24.576 18.739 20.275 29.389 40.038 34.714 64.614 3.379 15.053 3.891 19.558 4.301 39.219 0.819 33.792-7.168 61.747-25.805 90.624-31.334 48.333-91.648 79.462-156.877 80.794-5.325 0.102-9.933 0.307-10.24 0.41-0.41 0.102-2.867 0.102-5.734 0z" />
<glyph unicode="&#xe920;" glyph-name="Age-rating_4" d="M0 448v-512h1024v1024h-1024v-512zM1003.52 448v-491.52h-983.040v983.040h983.040v-491.52zM553.984 775.578c-10.957-1.229-14.95-2.15-23.757-5.53-26.010-9.626-52.019-33.792-68.096-62.976-1.741-3.072-8.090-14.848-14.131-26.112s-12.288-22.733-13.824-25.6c-1.536-2.765-6.349-11.776-10.752-19.968s-9.626-17.818-11.571-21.504c-2.97-5.427-20.582-38.093-56.525-104.96-2.458-4.506-6.246-11.366-8.397-15.155-2.15-3.891-3.891-7.168-3.891-7.373s-5.427-10.445-12.083-22.733c-6.656-12.288-14.336-26.419-17.101-31.539-9.114-16.998-12.083-22.528-13.824-25.6-0.922-1.638-3.994-7.168-6.656-12.288-2.765-5.018-9.114-16.998-14.336-26.624-5.12-9.523-9.83-18.739-10.547-20.48-6.451-16.589-4.915-40.448 3.584-54.17 9.523-15.462 31.334-27.238 55.603-30.003 3.072-0.307 49.562-0.717 103.219-0.717 53.555 0 97.587-0.307 97.587-0.614 0.102-0.307 0.307-19.149 0.41-41.984 0.307-45.158 0.614-48.947 6.656-63.386 6.861-16.794 19.763-30.413 34.202-36.352 11.674-4.813 29.901-6.042 44.442-3.072 24.166 4.915 42.394 24.678 49.562 53.658 0.614 2.765 1.331 22.016 1.741 48.128l0.614 43.52 9.83 0.205c20.378 0.512 38.4 8.397 53.555 23.347 14.541 14.438 21.606 36.762 17.613 55.706-4.608 22.016-18.534 37.683-40.346 45.568-8.192 2.867-14.848 3.891-27.853 4.301-5.325 0.102-10.547 0.307-11.469 0.307-1.638 0.102-1.843 9.114-2.15 148.378-0.41 160.358 0 149.402-5.53 166.605-8.397 26.112-29.286 50.381-52.429 60.621-16.282 7.27-36.147 10.342-53.35 8.397zM528.896 492.032c0-66.97-0.307-100.352-1.024-100.454-6.042-0.512-104.243-0.205-104.653 0.41-0.205 0.41 1.331 4.096 3.584 8.192 4.813 8.909 10.24 18.944 18.125 33.997 3.277 6.246 7.885 14.95 10.24 19.456s9.114 17.203 14.848 28.16c5.734 10.957 12.186 23.245 14.336 27.136 2.048 3.994 6.656 12.698 10.24 19.456 3.482 6.758 7.68 14.643 9.216 17.408 1.536 2.867 5.939 11.162 9.728 18.432 3.891 7.373 8.192 15.667 9.728 18.432 1.536 2.867 3.277 6.144 3.994 7.475 0.614 1.229 1.331 2.253 1.434 2.253s0.205-45.158 0.205-100.352z" />
<glyph unicode="&#xe921;" glyph-name="Age-rating_7" d="M0 448v-512h1024v1024h-1024v-512zM1003.52 448v-491.52h-983.040v983.040h983.040v-491.52zM346.112 764.928c-27.443-5.53-47.104-23.040-52.429-46.592-5.325-23.347 0.922-47.002 16.179-61.542 8.704-8.397 18.33-13.619 31.642-17.613 6.963-2.048 9.626-2.048 112.435-2.355 57.958-0.102 105.472-0.41 105.677-0.614s-0.512-2.15-1.536-4.403c-3.686-8.294-12.595-27.853-15.565-34.304-1.741-3.686-6.554-14.234-10.752-23.552-4.301-9.318-9.728-21.197-12.186-26.522-2.458-5.222-4.506-9.728-4.506-9.933s-1.536-3.686-3.482-7.782c-5.939-12.8-14.643-31.846-17.306-37.683-1.331-3.072-3.789-8.397-5.325-11.776s-5.325-11.674-8.397-18.432c-23.962-52.224-53.658-117.35-57.958-126.976-2.56-5.632-6.144-13.722-8.192-17.92-5.018-10.854-18.125-39.526-30.413-66.56-5.734-12.698-11.981-26.419-13.926-30.618-7.475-16.077-10.24-35.635-7.168-50.278 5.018-23.962 24.986-44.851 50.995-53.658 6.758-2.253 9.216-2.662 19.866-3.379 28.262-1.843 53.35 14.848 69.734 46.285 3.789 7.373 22.938 50.893 121.856 277.504 15.462 35.533 34.509 79.053 42.291 96.768 35.635 81.306 53.76 122.88 56.525 129.536 7.578 18.227 9.318 36.557 5.018 52.019-7.782 28.058-29.491 46.49-60.006 50.893-11.674 1.638-314.675 1.126-323.072-0.512z" />
<glyph unicode="&#xe922;" glyph-name="Age-rating_9" d="M0 448v-512h1024v1024h-1024v-512zM1003.52 448v-491.52h-983.040v983.040h983.040v-491.52zM482.099 781.312c-0.205-0.102-3.891-0.512-8.192-0.922-15.872-1.331-45.773-8.397-58.778-13.926-2.765-1.229-6.349-2.662-8.090-3.379-13.005-5.222-36.659-19.251-49.971-29.696-42.189-33.075-73.011-88.883-80.486-145.613-6.042-45.773-1.638-83.251 14.131-119.091 26.522-60.314 84.275-105.574 145.818-114.381 2.765-0.307 6.042-0.922 7.168-1.229 1.229-0.205 9.626-0.614 18.637-0.819 17.51-0.307 24.064 0.41 42.189 5.018 5.734 1.434 10.65 2.662 11.059 2.662 2.048 0-57.344-74.854-71.578-90.112-2.355-2.56-7.066-7.578-10.342-11.264-3.379-3.686-10.65-11.571-16.077-17.408-14.848-16.179-20.787-24.064-26.419-35.328-6.554-13.005-9.216-23.552-9.216-36.352-0.102-10.445 1.229-15.77 5.632-24.576 7.168-14.131 26.624-28.467 46.285-33.997 11.469-3.174 28.774-3.277 38.707-0.102 17.92 5.734 38.707 23.552 67.686 58.163 65.024 77.722 100.762 125.542 129.741 173.261 38.912 64.102 58.163 111.104 66.15 161.178 1.946 12.083 2.458 16.486 3.686 29.594 0.614 6.656 0.717 40.55 0.102 43.52-0.205 1.126-0.717 5.325-1.126 9.216-6.246 62.771-40.96 120.525-92.877 155.136-34.304 22.835-70.144 35.226-115.507 40.038-8.090 0.819-47.411 1.229-48.333 0.41zM528.794 634.982c27.136-7.578 50.995-31.744 58.061-58.778 2.765-10.547 3.072-28.467 0.614-39.117-5.53-23.347-23.245-45.158-45.261-55.808-12.698-6.042-20.992-7.987-35.328-7.987-26.726 0-48.742 11.469-65.946 34.099-19.456 25.805-21.197 62.157-4.301 90.010 4.915 7.987 15.77 19.558 23.654 25.19 7.782 5.632 17.818 10.342 26.931 12.902 8.704 2.355 32.256 2.15 41.574-0.512z" />
<glyph unicode="&#xe923;" glyph-name="Age-rating_12" d="M0 448v-512h1024v1024h-1024v-512zM1003.52 448v-491.52h-983.040v983.040h983.040v-491.52zM661.094 781.619c-98.509-5.734-184.013-79.36-201.728-173.568-4.301-22.835-3.891-47.104 1.024-60.928 10.24-28.877 32.768-44.851 63.386-44.851 19.456 0 30.925 4.403 42.496 16.384 11.366 11.571 14.95 19.558 26.010 59.187 7.27 25.805 14.643 40.55 25.293 51.302 21.094 20.89 55.91 25.293 79.155 9.83 12.186-8.090 22.835-23.552 26.931-39.424 2.048-8.192 2.355-28.672 0.41-36.864-5.837-24.781-13.824-40.038-38.4-72.602-20.173-26.829-35.635-45.363-81.408-97.382-3.277-3.686-17.613-19.968-31.846-36.352-14.336-16.282-26.214-29.901-26.624-30.208-0.307-0.307-6.963-7.885-14.848-16.896s-20.070-22.835-27.136-30.72c-6.963-7.885-13.619-15.462-14.848-16.794-1.126-1.331-4.608-5.222-7.68-8.499-9.421-10.342-10.24-11.264-17.715-21.299-12.902-16.998-17.408-29.491-16.589-45.568 0.512-11.571 2.15-18.227 6.656-27.648 8.806-18.534 27.136-29.491 55.296-33.178 3.686-0.512 76.698-0.922 162.304-0.922 169.165 0 163.84-0.205 178.688 5.632 14.643 5.734 27.853 17.306 33.792 29.491 4.403 9.011 6.349 17.715 6.349 29.491 0.102 25.805-11.981 45.875-34.304 56.934-16.179 7.987-11.674 7.578-105.882 8.192l-84.173 0.614 19.149 19.456c20.582 20.89 37.99 39.424 53.965 57.344 5.53 6.246 11.674 13.107 13.722 15.36 6.861 7.475 40.243 47.002 44.954 53.248 2.56 3.379 6.758 8.909 9.421 12.288 17.408 22.733 35.738 52.122 47.104 75.878 15.667 32.461 23.142 67.174 22.733 104.858-0.819 76.698-48.947 143.872-124.109 173.363-21.197 8.294-44.032 13.414-65.024 14.643-6.144 0.307-11.674 0.717-12.288 0.819-0.512 0.102-6.963-0.205-14.234-0.614zM169.779 765.44c-26.624-4.506-46.694-20.48-54.067-43.11-2.15-6.349-2.56-9.626-2.56-20.89 0-11.366 0.41-14.438 2.458-20.787 5.12-15.667 16.384-28.262 32.154-35.942 13.517-6.554 19.558-7.475 51.917-7.885l29.184-0.307 0.102-220.467c0.102-121.242 0.41-224.358 0.819-229.274 2.15-28.467 17.408-53.146 39.731-64.41 11.674-5.837 20.787-7.578 36.557-6.861 23.962 0.922 39.526 8.602 53.35 26.522 4.403 5.734 11.162 20.685 13.517 29.798l2.355 9.421v260.096c0 243.405-0.102 260.608-1.741 268.39-6.861 31.334-28.058 51.2-59.699 55.706-8.499 1.126-136.909 1.229-144.077 0z" />
<glyph unicode="&#xe924;" glyph-name="Age-rating_16" d="M0 448v-512h1024v1024h-1024v-512zM1003.52 448v-491.52h-983.040v983.040h983.040v-491.52zM708.608 780.288c-20.173-5.734-37.888-19.763-66.662-52.736-54.17-62.054-105.984-131.072-136.294-181.248-43.725-72.294-62.771-123.904-68.403-184.218-1.229-13.312-1.229-41.37 0.102-54.374 4.915-50.278 25.907-95.642 60.416-131.174 35.635-36.659 87.552-60.723 144.282-66.97 9.728-1.126 46.182-1.331 55.808-0.41 62.054 5.939 117.453 34.611 153.395 79.258 35.328 43.93 52.326 95.744 51.405 156.672-0.819 51.098-20.582 98.304-56.525 135.168-29.901 30.618-72.909 52.224-112.435 56.422-2.765 0.307-6.451 0.717-8.192 1.024-3.891 0.512-25.805 0.512-29.184 0-1.434-0.205-4.813-0.717-7.68-1.126-4.403-0.614-20.378-4.403-26.419-6.246-4.71-1.434 57.958 78.234 76.595 97.485 4.198 4.301 28.774 30.413 32.051 34.099 4.403 4.813 11.469 15.462 15.053 22.63 11.674 23.245 11.981 48.538 0.717 64.717-8.704 12.493-24.781 23.654-42.189 29.389-9.011 3.072-27.853 3.891-35.84 1.638zM687.104 415.232c20.173-5.325 33.997-14.131 47.002-30.208 22.938-28.262 23.757-68.301 1.946-97.997-11.674-15.872-27.955-27.238-46.080-32.154-8.704-2.355-27.955-2.765-37.171-0.922-33.382 6.963-60.928 36.864-64.819 70.656-3.072 26.010 4.608 48.435 23.040 67.379 12.698 13.005 28.365 21.402 44.851 24.166 6.861 1.126 25.498 0.614 31.232-0.922zM173.056 765.44c-14.541-2.56-29.286-9.933-39.424-19.866-21.606-21.197-22.938-62.566-2.867-85.504 8.294-9.421 23.859-18.227 38.707-21.709 3.072-0.717 16.384-1.331 33.69-1.536 15.667-0.205 28.774-0.614 29.184-0.922 0.307-0.41 0.614-102.4 0.717-226.611 0.102-249.958-0.307-232.243 6.554-249.037 6.554-15.77 20.582-31.744 33.28-37.888 20.685-9.933 47.411-9.83 67.584 0.205 15.053 7.578 27.75 23.245 34.202 42.598 4.813 14.336 4.813 8.909 4.71 279.245-0.102 234.803-0.307 255.693-1.843 263.782-5.734 29.389-22.016 47.104-50.893 55.501-7.475 2.15-9.114 2.15-78.336 2.355-38.81 0.102-72.704-0.205-75.264-0.614z" />
<glyph unicode="&#xe925;" glyph-name="Age-rating_17" d="M0 448v-512h1024v1024h-1024v-512zM1003.52 448v-491.52h-983.040v983.040h983.040v-491.52zM197.734 764.314c-24.474-5.427-41.984-20.48-49.357-42.394-2.048-6.042-2.355-9.216-2.355-20.48 0-13.619 0.819-17.818 5.325-28.16 5.222-12.083 18.842-24.576 32.973-30.31 14.234-5.734 16.896-5.939 73.421-6.554h4.198v-224.461c0-162.099 0.41-226.509 1.229-231.731 5.222-32.358 26.726-57.242 54.784-63.488 11.981-2.662 30.925-1.741 42.291 2.048 18.739 6.246 32.154 19.251 40.96 39.629 7.373 17.203 6.758-7.066 7.066 280.371 0.205 212.89 0 259.994-1.126 266.752-2.97 17.203-9.318 30.106-19.866 40.55-7.782 7.578-13.824 11.469-23.654 15.053-14.131 5.12-18.022 5.325-90.214 5.222-61.747-0.102-67.789-0.205-75.674-2.048zM503.091 765.44c-27.238-3.994-48.947-21.811-55.194-45.056-2.15-8.090-2.458-26.726-0.512-34.816 5.632-23.757 25.498-41.677 52.019-47.002 8.294-1.741 17.101-1.843 108.339-1.946 54.682-0.102 101.069-0.102 103.322-0.205 2.97 0 3.686-0.307 2.867-1.229-0.512-0.717-3.072-5.939-5.632-11.571s-6.246-13.722-8.192-17.92c-3.686-8.090-29.798-65.331-43.008-94.208-4.198-9.318-12.698-27.955-18.944-41.472-6.144-13.517-12.186-26.829-13.517-29.696-1.229-2.765-3.789-8.294-5.632-12.288-1.843-3.891-5.53-11.981-8.192-17.92s-6.861-15.053-9.318-20.378c-2.458-5.222-4.506-9.728-4.506-9.83 0-0.205-1.638-3.994-3.686-8.397-3.789-8.090-7.68-16.589-12.493-26.931-1.434-3.072-4.915-10.957-7.885-17.408-7.373-16.179-25.19-55.296-29.184-64-1.843-3.891-4.813-10.547-6.758-14.643-1.946-4.198-3.482-7.68-3.482-7.885 0-0.102-2.355-5.325-5.222-11.366-10.24-21.914-12.39-29.901-12.493-47.002-0.102-9.728 0.307-12.39 2.765-19.456 11.878-34.406 50.586-56.422 86.118-49.152 13.824 2.867 24.576 9.114 35.738 20.787 9.728 10.138 16.998 22.528 27.238 46.285 2.97 7.066 7.27 16.589 9.421 21.299s3.891 8.704 3.891 8.909c0 0.307 20.685 47.718 34.816 79.872 2.662 6.246 13.824 31.539 24.576 56.32 10.854 24.781 20.582 47.104 21.709 49.664s8.192 18.944 15.872 36.352c7.578 17.51 14.746 33.792 15.872 36.352 1.229 2.56 3.584 8.090 5.427 12.288 3.584 8.294 20.275 46.694 22.528 51.712 0.717 1.741 2.355 5.427 3.584 8.192 2.662 6.144 36.352 83.251 38.912 89.088 13.926 31.539 15.974 36.454 18.534 45.67 7.373 26.317-0.307 53.453-20.378 71.578-7.782 6.963-17.715 12.288-29.594 15.667l-7.987 2.253-158.208 0.102c-87.040 0.102-160.563-0.205-163.533-0.614z" />
<glyph unicode="&#xe926;" glyph-name="Age-rating_18" d="M0 448v-512h1024v1024h-1024v-512zM1003.52 448v-491.52h-983.040v983.040h983.040v-491.52zM657.92 780.698c-19.251-2.56-24.883-3.584-37.376-6.656-31.027-7.578-60.621-21.504-82.944-39.117-13.517-10.65-31.027-31.232-40.243-47.411-7.782-13.619-14.746-33.997-17.51-51.507-2.867-18.432-1.434-51.302 3.072-70.758 6.861-29.389 22.016-55.501 46.899-80.486l7.68-7.885-9.421-7.066c-23.757-17.92-40.858-35.123-52.634-53.35-12.698-19.456-23.040-47.616-25.395-69.222-0.41-3.174-0.819-6.861-1.126-8.090-0.614-3.174-0.512-32.051 0.102-37.581 5.53-44.646 14.746-70.451 35.738-100.352 31.437-44.851 81.101-75.366 142.438-87.552 19.046-3.686 30.003-4.813 53.248-5.12 29.901-0.41 49.357 1.638 74.035 7.68 66.253 16.179 115.917 53.658 144.282 108.749 9.318 18.022 16.691 41.165 19.251 60.211 0.41 3.072 0.922 6.554 1.229 7.68 1.229 5.325 1.536 42.086 0.41 51.405-6.144 51.507-29.696 89.088-78.438 125.338l-9.83 7.168 8.602 8.397c35.533 34.918 50.483 69.632 51.507 119.501 0.717 41.472-7.885 70.349-29.901 99.635-14.848 19.661-34.918 36.659-58.88 49.664-13.414 7.27-42.496 18.33-53.248 20.173-1.536 0.307-5.632 1.229-9.011 2.048-13.107 3.379-33.792 5.427-55.398 5.427-11.571-0.102-23.757-0.41-27.136-0.922zM700.826 655.872c10.342-2.662 18.125-6.861 26.419-14.438 8.602-7.68 15.258-17.613 18.842-28.058 2.56-7.168 2.867-9.728 2.867-20.48 0-20.173-5.222-33.075-19.354-47.104-19.968-19.968-47.718-24.576-73.114-12.083-10.957 5.427-24.781 19.149-30.003 30.003-5.427 11.264-6.349 15.462-6.349 29.184 0.102 13.619 1.843 20.582 7.885 31.232 5.12 9.011 19.251 22.426 28.365 26.931 13.824 6.861 29.696 8.602 44.442 4.813zM703.898 419.84c24.269-5.734 47.514-24.883 58.573-48.128 13.926-29.491 9.626-62.976-11.366-89.293-27.136-33.894-76.595-41.882-112.742-18.227-8.294 5.53-19.661 16.998-25.19 25.6-9.728 14.95-13.312 27.648-13.414 46.080 0 23.757 8.294 44.032 24.883 60.621 20.89 20.89 51.302 29.901 79.258 23.347zM151.552 765.338c-27.443-4.506-48.538-22.528-54.784-46.899-2.15-8.192-2.253-24.986-0.205-33.382 4.301-18.33 16.179-32.256 35.021-41.062 14.746-6.861 14.336-6.758 76.8-7.578h3.072v-224.563c-0.102-241.357-0.307-232.243 5.12-247.91 4.71-13.619 16.998-30.31 27.648-37.581 16.179-10.957 41.574-14.438 62.976-8.397 23.757 6.554 42.086 27.955 48.538 56.627 1.638 7.168 1.946 48.333 1.946 270.848 0 192.717-0.307 255.59-1.331 260.608-6.042 33.075-25.907 53.248-57.856 58.88-7.475 1.229-19.866 1.536-75.162 1.434-36.352-0.102-68.71-0.512-71.782-1.024z" />
<glyph unicode="&#xe927;" glyph-name="age-rating_mono_3" d="M0 448v-512h1024v1024h-1024v-512zM522.342 781.722c56.525-1.126 112.947-26.214 144.691-64.307 19.866-23.859 32.256-51.098 36.864-80.998 1.741-10.854 1.536-37.069-0.307-50.483-2.765-20.275-9.114-39.014-18.125-54.067-9.626-15.974-27.034-34.816-43.622-47.206-6.554-4.915-8.294-6.963-5.939-6.963 1.434 0 20.685-11.776 29.184-17.715 38.298-27.238 62.362-61.542 71.782-102.605 7.68-33.485 4.608-76.595-7.987-110.592-16.282-44.134-45.978-79.667-87.654-104.858-30.208-18.227-64-28.979-102.605-32.768-8.909-0.922-50.688-0.717-55.296 0.307-1.434 0.307-6.451 1.024-11.264 1.638-31.13 4.198-61.645 14.848-87.45 30.413-40.346 24.474-77.21 68.301-90.214 107.315-3.072 9.216-6.656 28.058-6.656 35.021 0 13.619 6.451 30.31 16.282 41.984 15.77 18.739 33.382 26.829 55.91 25.6 17.613-1.024 31.539-7.066 41.984-18.33 2.97-3.174 9.216-12.39 13.926-20.48 15.258-26.522 19.456-32.666 27.546-40.755 14.438-14.438 31.437-23.654 49.664-27.136 5.939-1.126 24.269-0.512 31.949 1.126 18.432 3.789 31.846 11.162 43.93 24.166 10.65 11.571 16.589 23.45 19.558 39.117 1.843 9.83 1.229 30.72-1.126 39.322-7.885 28.57-31.744 45.158-71.782 49.869-2.253 0.307-6.349 0.717-9.216 1.024-14.848 1.741-30.515 5.734-39.936 10.24-12.595 5.939-23.552 18.944-28.262 33.485-2.15 6.451-2.458 9.421-2.458 22.323 0 12.8 0.307 15.77 2.355 21.709 2.765 7.987 6.758 13.926 13.312 19.968 8.602 7.885 19.558 12.493 52.634 22.221 8.909 2.662 19.251 6.144 23.040 7.987 26.214 12.083 40.448 32.666 40.346 58.163-0.102 44.442-55.296 66.867-98.816 40.243-11.162-6.758-18.125-12.8-35.226-30.106-22.733-23.245-35.021-31.744-51.61-36.25-9.216-2.458-24.371-1.741-33.075 1.536-16.077 6.144-31.13 21.197-37.786 37.786-5.939 15.155-4.915 38.912 2.458 59.187 18.739 51.098 82.022 95.027 157.696 109.773 13.824 2.662 38.502 5.427 41.062 4.506 0.307-0.102 4.915-0.307 10.24-0.41z" />
<glyph unicode="&#xe928;" glyph-name="age-rating_mono_4" d="M0 448v-512h1024v1024h-1024v-512zM579.379 775.168c21.914-3.277 37.683-10.752 52.531-24.781 12.698-12.083 22.733-27.955 27.853-43.827 5.53-17.203 5.12-6.246 5.53-166.605 0.307-139.264 0.512-148.275 2.15-148.378 0.922 0 6.349-0.205 11.981-0.307 16.282-0.512 24.781-2.355 35.635-7.885 16.998-8.602 28.058-23.040 32.051-41.984 2.048-9.421 1.229-19.558-2.15-30.515-8.704-27.341-37.683-47.718-69.018-48.538l-9.83-0.205-0.614-43.52c-0.41-26.112-1.126-45.363-1.741-48.128-5.53-22.528-17.613-39.424-34.611-48.333-15.872-8.397-42.189-9.318-59.392-2.253-14.541 5.939-27.341 19.456-34.202 36.25-6.042 14.541-6.349 18.227-6.656 63.488-0.102 22.835-0.307 41.677-0.41 41.984 0 0.307-44.032 0.614-97.587 0.614-53.658 0-100.147 0.41-103.219 0.717-24.269 2.765-46.080 14.541-55.603 30.003-8.499 13.722-10.035 37.581-3.584 54.17 0.717 1.741 5.427 10.957 10.547 20.48 5.222 9.626 11.571 21.606 14.336 26.624 2.662 5.12 5.734 10.65 6.656 12.288 1.741 3.072 4.71 8.602 13.824 25.6 2.765 5.12 10.445 19.251 17.101 31.539s12.083 22.528 12.083 22.733c0 0.205 1.741 3.482 3.891 7.373 2.15 3.789 5.939 10.65 8.397 15.155 35.942 66.867 53.555 99.533 56.525 104.96 1.946 3.686 7.168 13.312 11.571 21.504s9.216 17.203 10.752 19.968c1.536 2.867 7.782 14.336 13.824 25.6 15.872 29.491 16.794 31.13 21.299 37.888 18.432 27.546 44.646 47.718 70.451 54.374 11.162 2.867 28.262 3.686 39.629 1.946zM527.258 590.131c-0.717-1.331-2.458-4.608-3.994-7.475-1.536-2.765-5.837-11.059-9.728-18.432-3.789-7.27-8.192-15.565-9.728-18.432-1.536-2.765-5.734-10.65-9.216-17.408-3.584-6.758-8.192-15.462-10.24-19.456-2.15-3.891-8.602-16.179-14.336-27.136s-12.493-23.654-14.848-28.16c-2.355-4.506-6.963-13.21-10.24-19.456-7.885-15.053-13.312-25.088-18.125-33.997-2.253-4.096-3.789-7.782-3.584-8.192 0.41-0.614 98.611-0.922 104.653-0.41 0.717 0.102 1.024 33.485 1.024 100.454 0 55.194-0.102 100.352-0.205 100.352s-0.819-1.024-1.434-2.253z" />
<glyph unicode="&#xe929;" glyph-name="age-rating_mono_7" d="M0 448v-512h1024v1024h-1024v-512zM669.184 765.44c25.395-3.686 44.646-16.998 55.603-38.605 6.758-13.21 8.602-33.28 4.506-48.947-2.867-10.752-1.434-7.373-61.645-144.896-7.782-17.715-22.016-50.483-31.744-72.704-9.626-22.221-18.432-42.496-19.558-44.954-1.229-2.458-13.107-29.696-26.522-60.416-88.986-204.083-86.733-199.168-96.256-212.070-11.776-15.872-28.16-26.829-44.442-29.696-10.24-1.843-24.986-0.717-35.226 2.662-20.173 6.861-36.966 21.094-45.875 38.81-9.114 18.33-8.294 42.906 2.048 65.229 1.946 4.096 8.192 17.818 13.926 30.515 12.288 27.034 25.395 55.706 30.413 66.56 2.048 4.198 5.632 12.288 8.192 17.92 4.301 9.626 33.997 74.752 57.958 126.976 3.072 6.758 6.861 15.053 8.397 18.432s3.994 8.704 5.325 11.776c2.662 5.837 11.366 24.883 17.306 37.683 1.946 4.096 3.482 7.578 3.482 7.782s2.048 4.71 4.506 9.933c2.458 5.325 7.885 17.203 12.186 26.522 4.198 9.318 9.011 19.866 10.752 23.552 2.97 6.451 11.878 26.010 15.565 34.304 1.024 2.253 1.741 4.301 1.536 4.403-0.205 0.205-47.718 0.512-105.677 0.614-102.81 0.307-105.472 0.307-112.435 2.355-32.666 9.626-50.483 32.768-49.562 64.717 0.614 21.914 9.421 38.4 26.726 49.869 7.987 5.325 17.203 9.114 27.443 11.162 8.397 1.638 311.398 2.15 323.072 0.512z" />
</font>
</defs>
</svg>
